[国家地理] [4K国家地理] 索契 (2021) [2160P/MKV/371MB]

[复制链接]

2664

主题

2998

帖子

2万

积分

超级版主

Rank: 8Rank: 8

积分
25020
 楼主| 发表于 2022-1-3 10:27:10 | 显示全部楼层 |阅读模式
索契 (2021) WEBRip 2160p.mkv_20211209_133854.869.jpg 索契 (2021) WEBRip 2160p.mkv_20211209_133906.837.jpg 索契 (2021) WEBRip 2160p.mkv_20211209_133917.575.jpg 索契 (2021) WEBRip 2160p.mkv_20211209_133927.925.jpg 索契 (2021) WEBRip 2160p.mkv_20211209_133944.765.jpg 索契 (2021) WEBRip 2160p.mkv_20211209_133953.021.jpg

影片信息
片名:索契
上映年份: 2021
国家:俄罗斯
时长: 00 : 02 : 20
类型: 物种
导演: Evgeniy Kozhin

关于影片:

          在这段视频中,您将看到 Bzerpinsky 檐口、Matsesta 茶园、阿洪山和许多云!!!
General
Complete name                  : E:\4K国家地理\索契 (2021) WEBRip 2160p.mkv
Format                         : Matroska
Format version                 : Version 4
File size                      : 371 MiB
Duration                       : 2 min 20 s
Overall bit rate               : 22.2 Mb/s
Encoded date                   : UTC 2021-11-06 02:30:46
Writing application            : mkvmerge v62.0.0 ('Apollo') 64-bit
Writing library                : libebml v1.4.2 + libmatroska v1.6.4

Video
ID                             : 1
Format                         : AVC
Format/Info                    : Advanced Video Codec
Format profile                 : High@L5.2
Format settings                : CABAC / 5 Ref Frames
Format settings, CABAC         : Yes
Format settings, Reference fra : 5 frames
Codec ID                       : V_MPEG4/ISO/AVC
Duration                       : 2 min 20 s
Bit rate                       : 22.0 Mb/s
Width                          : 4 096 pixels
Height                         : 1 716 pixels
Display aspect ratio           : 2.40:1
Frame rate mode                : Constant
Frame rate                     : 30.000 FPS
Color space                    : YUV
Chroma subsampling             : 4:2:0
Bit depth                      : 8 bits
Scan type                      : Progressive
Bits/(Pixel*Frame)             : 0.104
Stream size                    : 367 MiB (99%)
Writing library                : x264 core 164 r10 ae03D92
Encoding settings              : cabac=1 / ref=5 / deblock=1:0:0 / analyse=0x3:0x113 / me=hex / subme=8 / psy=1 / psy_rd=1.00:0.00 / mixed_ref=1 / me_range=16 / chroma_me=1 / trellis=2 / 8x8dct=1 / cqm=0 / deadzone=21,11 / fast_pskip=1 / chroma_qp_offset=-2 / threads=48 / lookahead_threads=8 / sliced_threads=0 / nr=0 / decimate=1 / interlaced=0 / bluray_compat=0 / stitchable=1 / constrained_intra=0 / bframes=3 / b_pyramid=2 / b_adapt=2 / b_bias=0 / direct=3 / weightb=1 / open_gop=0 / weightp=2 / keyint=infinite / keyint_min=30 / scenecut=40 / intra_refresh=0 / rc_lookahead=50 / rc=crf / mbtree=1 / crf=20.0 / qcomp=0.60 / qpmin=5 / qpmax=69 / qpstep=4 / vbv_maxrate=24200 / vbv_bufsize=66000 / crf_max=0.0 / nal_hrd=none / filler=0 / ip_ratio=1.40 / aq=1:1.00
Default                        : Yes
Forced                         : No
Color range                    : Limited
Color primaries                : BT.709
Transfer characteristics       : BT.709
Matrix coefficients            : BT.709

Audio
ID                             : 2
Format                         : AAC LC
Format/Info                    : Advanced Audio Codec Low Complexity
Codec ID                       : A_AAC-2
Duration                       : 2 min 20 s
Bit rate                       : 253 kb/s
Channel(s)                     : 2 channels
Channel layout                 : L R
Sampling rate                  : 48.0 kHz
Frame rate                     : 46.875 FPS (1024 SPF)
Compression mode               : Lossy
Delay relative to video        : -66 ms
Stream size                    : 4.23 MiB (1%)
Default                        : Yes
Forced                         : No
下载地址:

****此区域为收费内容****    需支付 15 金币后可查看立即购买






上一篇:[4K国家地理] 夏季的冰岛 (2021) [2160P/MKV/663MB]
下一篇:[4K国家地理] 十字弓城堡 (2021) [2160P/MKV/294MB]
回复

使用道具 举报

53

主题

1205

帖子

3681

积分

4K家园VIP

Rank: 9Rank: 9Rank: 9

积分
3681
发表于 2022-1-3 10:27:14 | 显示全部楼层
为了三千积分!
回复 支持 反对

使用道具 举报

3

主题

1420

帖子

4114

积分

4K家园VIP

Rank: 9Rank: 9Rank: 9

积分
4114
发表于 2022-1-3 10:27:14 | 显示全部楼层
我也是坐沙发的
回复 支持 反对

使用道具 举报

0

主题

44

帖子

1842

积分

注册会员

Rank: 2

积分
1842
发表于 2022-1-3 12:08:52 | 显示全部楼层
俄羅斯索契4k
回复 支持 反对

使用道具 举报

0

主题

7280

帖子

1万

积分

4K家园VIP

Rank: 9Rank: 9Rank: 9

积分
16651
发表于 2022-1-3 12:09:35 | 显示全部楼层
俄羅斯索契4k
回复 支持 反对

使用道具 举报

54

主题

1535

帖子

4393

积分

4K家园VIP

Rank: 9Rank: 9Rank: 9

积分
4393
发表于 2022-1-4 01:19:41 来自手机 | 显示全部楼层
确实不错,顶先
回复 支持 反对

使用道具 举报

0

主题

10

帖子

51

积分

新手上路

Rank: 1

积分
51
发表于 2022-1-4 12:49:47 | 显示全部楼层
看着真不错 顶起
回复 支持 反对

使用道具 举报

3

主题

1307

帖子

3945

积分

4K家园VIP

Rank: 9Rank: 9Rank: 9

积分
3945
发表于 2022-1-5 02:55:11 | 显示全部楼层
支持,楼下的跟上哈~
回复 支持 反对

使用道具 举报

5

主题

1445

帖子

4167

积分

4K家园VIP

Rank: 9Rank: 9Rank: 9

积分
4167
发表于 2022-1-8 14:01:23 来自手机 | 显示全部楼层
好,很好,非常好!
回复 支持 反对

使用道具 举报

您需要登录后才可以回帖 登录 | 立即注册

本版积分规则

精彩图文
Archiver|手机版|TAG|Sitemap|新帖|专题|联系我们:邮箱: 4kjia.com@gmail.com   

4k家园   ©2019