[国家地理] [4K国家地理] 十字弓城堡 (2021) [2160P/MKV/294MB]

[复制链接]

2652

主题

2986

帖子

2万

积分

超级版主

Rank: 8Rank: 8

积分
24945
 楼主| 发表于 2021-12-25 11:46:44 | 显示全部楼层 |阅读模式
十字弓城堡(294MB)Zamek Krzyżtopór (2021) WEBRip 2160p.mkv_20211209_134243.07.jpg 十字弓城堡(294MB)Zamek Krzyżtopór (2021) WEBRip 2160p.mkv_20211209_134250.42.jpg 十字弓城堡(294MB)Zamek Krzyżtopór (2021) WEBRip 2160p.mkv_20211209_134256.32.jpg 十字弓城堡(294MB)Zamek Krzyżtopór (2021) WEBRip 2160p.mkv_20211209_134306.79.jpg 十字弓城堡(294MB)Zamek Krzyżtopór (2021) WEBRip 2160p.mkv_20211209_134314.94.jpg 十字弓城堡(294MB)Zamek Krzyżtopór (2021) WEBRip 2160p.mkv_20211209_134331.68.jpg

关于信息
标题: Kryzhtopor城堡
发行年: 2021
国家:波兰
时长: 00 : 02 : 21
类型: 种
导演: Szymon Szymon

关于影片:

         Kryztopor城堡是过渡的时代,从矫饰联合体宫殿和设防建筑的巴洛克早期的一座丰碑,建于 1627-1644 年。

General
Complete name                  : E:\4K国家地理\十字弓城堡(294MB)Zamek Krzyżtopór (2021) WEBRip 2160p.mkv
Format                         : Matroska
Format version                 : Version 4
File size                      : 294 MiB
Duration                       : 2 min 21 s
Overall bit rate               : 17.5 Mb/s
Encoded date                   : UTC 2021-11-10 05:54:07
Writing application            : mkvmerge v62.0.0 ('Apollo') 64-bit
Writing library                : libebml v1.4.2 + libmatroska v1.6.4 / IDMmkvlib0.1
Language                       : und

Video
ID                             : 1
Format                         : VP9
Codec ID                       : V_VP9
Duration                       : 2 min 20 s
Bit rate                       : 17.4 Mb/s
Width                          : 3 840 pixels
Height                         : 2 160 pixels
Display aspect ratio           : 16:9
Frame rate mode                : Variable
Frame rate                     : 29.970 (29970/1000) FPS
Bits/(Pixel*Frame)             : 0.070
Stream size                    : 292 MiB (99%)
Default                        : Yes
Forced                         : No

Audio
ID                             : 2
Format                         : Opus
Codec ID                       : A_OPUS
Duration                       : 2 min 21 s
Bit rate                       : 120 kb/s
Channel(s)                     : 2 channels
Channel layout                 : L R
Sampling rate                  : 48.0 kHz
Frame rate                     : 50.000 FPS (960 SPF)
Bit depth                      : 16 bits
Compression mode               : Lossy
Stream size                    : 2.02 MiB (1%)
Default                        : Yes
Forced                         : No

下载地址:

****此区域为收费内容****    需支付 15 金币后可查看立即购买






上一篇:[4K国家地理] 索契 (2021) [2160P/MKV/371MB]
下一篇:4K美女视频] 韩国女团丰乳肥臀部性感内衣热舞 4K视频下载
回复

使用道具 举报

1

主题

1504

帖子

4360

积分

4K家园VIP

Rank: 9Rank: 9Rank: 9

积分
4360
发表于 2021-12-25 11:46:48 | 显示全部楼层
发发呆,回回帖,工作结束~
回复 支持 反对

使用道具 举报

0

主题

7239

帖子

1万

积分

4K家园VIP

Rank: 9Rank: 9Rank: 9

积分
16578
发表于 2021-12-25 13:28:13 | 显示全部楼层
波蘭十字弓城堡4k
回复 支持 反对

使用道具 举报

0

主题

11

帖子

69

积分

4K家园VIP

Rank: 9Rank: 9Rank: 9

积分
69
发表于 2021-12-25 17:05:05 | 显示全部楼层
怎么样才能看到啊
回复 支持 反对

使用道具 举报

48

主题

1514

帖子

4366

积分

4K家园VIP

Rank: 9Rank: 9Rank: 9

积分
4366
发表于 2021-12-26 06:22:07 | 显示全部楼层
珍爱生命,果断回帖。
回复 支持 反对

使用道具 举报

8

主题

1141

帖子

3389

积分

4K家园VIP

Rank: 9Rank: 9Rank: 9

积分
3389
发表于 2021-12-26 15:36:21 来自手机 | 显示全部楼层
为毛老子总也抢不到沙发?!!
回复 支持 反对

使用道具 举报

2

主题

1710

帖子

4666

积分

4K家园VIP

Rank: 9Rank: 9Rank: 9

积分
4666
发表于 2021-12-27 00:15:26 | 显示全部楼层
支持,赞一个
回复 支持 反对

使用道具 举报

52

主题

1455

帖子

4231

积分

4K家园VIP

Rank: 9Rank: 9Rank: 9

积分
4231
发表于 2021-12-28 03:46:31 | 显示全部楼层
路过 帮顶 嘿嘿
回复 支持 反对

使用道具 举报

您需要登录后才可以回帖 登录 | 立即注册

本版积分规则

精彩图文
Archiver|手机版|TAG|Sitemap|新帖|专题|联系我们:邮箱: 4kjia.com@gmail.com   

4k家园   ©2019