[4K电影] 美国难民 / American Refugee (2021) 4K高清版下载

[复制链接]

1339

主题

1444

帖子

1万

积分

超级版主

Rank: 8Rank: 8

积分
11232
 楼主| 发表于 2021-12-10 11:23:28 | 显示全部楼层 |阅读模式
本帖最后由 最爱4K哟 于 2021-12-10 16:58 编辑

QQ图片20211210112225_副本.png

◎译  名 美国难民
◎片  名 American Refugee
◎年  代 2021
◎产  地 美国
◎类  别 惊悚 / 恐怖
◎语  言 英语
◎上映日期 1993-06-30
◎IMDb评分  0/10 from 0 users
◎IMDb链接  https://www.imdb.com/title/tt14556184
◎豆瓣评分 0/10 from 0 users
◎豆瓣链接 https://movie.douban.com/subject/35669614/
◎片  长 94分钟
◎导  演 阿利-勒鲁伊
◎编  剧 艾莉森·巴克梅尔特 / 尼古拉斯·巴克梅尔特
◎主  演 山姆·特拉梅尔
                   埃里卡·亚历山大
                   德里克·卢克
                   杰西·案
                   文斯·马蒂斯


◎简  介



          下面是一个家庭在邻居的地堡里寻找避难所的故事,当时美国经济正在崩溃,里面的危险比外面大。
General
Complete name                  : H:\4K@电影\American.Refugee.2021.2160p.WEB-DL.DD5.1.HEVC-EVO.mkv
Format                         : Matroska
Format version                 : Version 4
File size                      : 8.19 GiB
Duration                       : 1 h 34 min
Overall bit rate               : 12.5 Mb/s
Encoded date                   : UTC 2021-12-10 00:11:11
Writing application            : mkvmerge v45.0.0 ('Heaven in Pennies') 64-bit
Writing library                : libebml v1.3.10 + libmatroska v1.5.2

Video
ID                             : 1
Format                         : HEVC
Format/Info                    : High Efficiency Video Coding
Format profile                 : Main 10@L5@High
Codec ID                       : V_MPEGH/ISO/HEVC
Duration                       : 1 h 34 min
Bit rate                       : 12.1 Mb/s
Width                          : 3 836 pixels
Height                         : 1 606 pixels
Display aspect ratio           : 2.40:1
Frame rate mode                : Constant
Frame rate                     : 23.976 (24000/1001) FPS
Color space                    : YUV
Chroma subsampling             : 4:2:0
Bit depth                      : 10 bits
Bits/(Pixel*Frame)             : 0.082
Stream size                    : 7.94 GiB (97%)
Default                        : Yes
Forced                         : No
Color range                    : Limited
Color primaries                : BT.709
Transfer characteristics       : BT.709
Matrix coefficients            : BT.709

Audio
ID                             : 2
Format                         : AC-3
Format/Info                    : Audio Coding 3
Commercial name                : Dolby Digital
Codec ID                       : A_AC3
Duration                       : 1 h 34 min
Bit rate mode                  : Constant
Bit rate                       : 384 kb/s
Channel(s)                     : 6 channels
Channel layout                 : L R C LFE Ls Rs
Sampling rate                  : 48.0 kHz
Frame rate                     : 31.250 FPS (1536 SPF)
Compression mode               : Lossy
Stream size                    : 259 MiB (3%)
Title                          : English
Language                       : English
Service kind                   : Complete Main
Default                        : No
Forced                         : No
General
Complete name                  : H:\4K@电影\American.Refugee.2021.2160p.WEB-DL.DD5.1.HEVC-EVO.mkv
Format                         : Matroska
Format version                 : Version 4
File size                      : 8.19 GiB
Duration                       : 1 h 34 min
Overall bit rate               : 12.5 Mb/s
Encoded date                   : UTC 2021-12-10 00:11:11
Writing application            : mkvmerge v45.0.0 ('Heaven in Pennies') 64-bit
Writing library                : libebml v1.3.10 + libmatroska v1.5.2

Video
ID                             : 1
Format                         : HEVC
Format/Info                    : High Efficiency Video Coding
Format profile                 : Main 10@L5@High
Codec ID                       : V_MPEGH/ISO/HEVC
Duration                       : 1 h 34 min
Bit rate                       : 12.1 Mb/s
Width                          : 3 836 pixels
Height                         : 1 606 pixels
Display aspect ratio           : 2.40:1
Frame rate mode                : Constant
Frame rate                     : 23.976 (24000/1001) FPS
Color space                    : YUV
Chroma subsampling             : 4:2:0
Bit depth                      : 10 bits
Bits/(Pixel*Frame)             : 0.082
Stream size                    : 7.94 GiB (97%)
Default                        : Yes
Forced                         : No
Color range                    : Limited
Color primaries                : BT.709
Transfer characteristics       : BT.709
Matrix coefficients            : BT.709

Audio
ID                             : 2
Format                         : AC-3
Format/Info                    : Audio Coding 3
Commercial name                : Dolby Digital
Codec ID                       : A_AC3
Duration                       : 1 h 34 min
Bit rate mode                  : Constant
Bit rate                       : 384 kb/s
Channel(s)                     : 6 channels
Channel layout                 : L R C LFE Ls Rs
Sampling rate                  : 48.0 kHz
Frame rate                     : 31.250 FPS (1536 SPF)
Compression mode               : Lossy
Stream size                    : 259 MiB (3%)
Title                          : English
Language                       : English
Service kind                   : Complete Main
Default                        : No
Forced                         : No

迅雷下载资源速度为零,资源敏感或被和谐时,推荐使用qBittorrent等无限速下载软件,有条件的推荐115更好的下载软件!               

下载地址

****此区域为收费内容****    需支付 9 金币后可查看立即购买





.

上一篇:遇见(内封简繁中字) / Encounter (2021) 4K高清版下载
下一篇:最后之子 / The Last Son (2021) 4K高清版下载
回复

使用道具 举报

1339

主题

1444

帖子

1万

积分

超级版主

Rank: 8Rank: 8

积分
11232
 楼主| 发表于 2021-12-10 16:53:29 | 显示全部楼层
American.Refugee.2021.2160p.WEB-DL.DD5.1.HEVC-EVO.mkv_20211210_165003.083.jpg American.Refugee.2021.2160p.WEB-DL.DD5.1.HEVC-EVO.mkv_20211210_165020.540.jpg American.Refugee.2021.2160p.WEB-DL.DD5.1.HEVC-EVO.mkv_20211210_165025.819.jpg American.Refugee.2021.2160p.WEB-DL.DD5.1.HEVC-EVO.mkv_20211210_165032.867.jpg American.Refugee.2021.2160p.WEB-DL.DD5.1.HEVC-EVO.mkv_20211210_165040.963.jpg American.Refugee.2021.2160p.WEB-DL.DD5.1.HEVC-EVO.mkv_20211210_165105.371.jpg
回复 支持 反对

使用道具 举报

48

主题

1471

帖子

4231

积分

4K家园VIP

Rank: 9Rank: 9Rank: 9

积分
4231
发表于 2021-12-10 11:23:32 | 显示全部楼层
差评
回复 支持 反对

使用道具 举报

0

主题

7280

帖子

1万

积分

4K家园VIP

Rank: 9Rank: 9Rank: 9

积分
16651
发表于 2021-12-10 13:12:24 | 显示全部楼层
太好啦&萬分感謝版主的無私發佈分享%
回复 支持 反对

使用道具 举报

0

主题

240

帖子

1473

积分

注册会员

Rank: 2

积分
1473
发表于 2021-12-10 14:32:11 | 显示全部楼层
感謝版主的無私發佈
回复 支持 反对

使用道具 举报

44

主题

1485

帖子

4273

积分

4K家园VIP

Rank: 9Rank: 9Rank: 9

积分
4273
发表于 2021-12-10 19:01:59 | 显示全部楼层
感谢推荐,确实不错
回复 支持 反对

使用道具 举报

48

主题

1488

帖子

4334

积分

4K家园VIP

Rank: 9Rank: 9Rank: 9

积分
4334
发表于 2021-12-10 21:03:50 来自手机 | 显示全部楼层
为保住菊花,这个一定得回复!
回复 支持 反对

使用道具 举报

3

主题

1343

帖子

4047

积分

4K家园VIP

Rank: 9Rank: 9Rank: 9

积分
4047
发表于 2021-12-11 04:06:13 | 显示全部楼层
沙发???
回复 支持 反对

使用道具 举报

2

主题

1380

帖子

4113

积分

4K家园VIP

Rank: 9Rank: 9Rank: 9

积分
4113
发表于 2021-12-11 05:21:29 | 显示全部楼层
鄙视楼下的顶帖没我快,哈哈
回复 支持 反对

使用道具 举报

您需要登录后才可以回帖 登录 | 立即注册

本版积分规则

精彩图文
Archiver|手机版|TAG|Sitemap|新帖|专题|联系我们:邮箱: 4kjia.com@gmail.com   

4k家园   ©2019