[4K电影] 最后之子 / The Last Son (2021) 4K高清版下载

[复制链接]

1323

主题

1428

帖子

1万

积分

超级版主

Rank: 8Rank: 8

积分
11131
 楼主| 发表于 2021-12-10 17:18:39 | 显示全部楼层 |阅读模式

QQ图片20211210171300_副本.png

◎译  名 最后之子 / The Last Son of Isaac Lemay / 艾萨克·勒梅最后的孩子
◎片  名 The Last Son
◎年  代 2021
◎产  地 美国
◎类  别 剧情 / 动作
◎语  言 英语
◎上映日期 2021-09-06(多维尔美国电影节) / 2021-12-10(美国)
◎IMDb评分  7.5/10 from 58 users
◎IMDb链接  https://www.imdb.com/title/tt1800393/
◎豆瓣评分 0/10 from 0 users
◎豆瓣链接 https://movie.douban.com/subject/10440068/
◎片  长 108分钟
◎导  演 大卫·凡·安肯
◎编  剧 格雷格·约翰逊
◎主  演 希瑟·格雷厄姆

                   萨姆·沃辛顿
                   机关枪凯利
                   托马斯·简
                   詹姆斯·兰德里·赫伯特
                   亚历克斯·梅拉兹
                   金·德隆希
                   艾米莉·玛丽·帕尔默
                   杰里米·高纳
                   海勒姆·默里
                   贝茨·怀尔德
                   凯瑟琳·蒂伯曼
                   丹尼·博恩
                   安德鲁·斯蒂克
                   大卫·西尔弗曼
                   斯科蒂·博恩
                   詹姆斯·迪·贾科莫
                   蒂姆·蒙大拿
                   迈克尔·麦卡特尼
                   史蒂夫·西尔科奇



◎简  介

         萨姆·沃辛顿将主演动作新片[艾萨克·勒梅最后的孩子](The Last Son of Isaac LeMay,暂译)。大卫·凡·安肯(《地狱之轮》)执导,影片改编自格雷格·约翰逊“黑名单”剧本,讲述一位占卜师告诉艾萨克·勒梅(沃辛顿饰),艾萨克受到了诅咒,他将被他其中一个孩子杀死。为了避免诅咒成真,他通过遗传胎记找到了他的孩子卡尔。卡尔为非作歹,艾萨克必须阻止卡尔,并解除诅咒。
General
Complete name                  : H:\4K@电影\The.Last.Son.2021.2160p.WEB-DL.x265.10bit.SDR.DD5.1-CM.mkv
Format                         : Matroska
Format version                 : Version 4
File size                      : 8.10 GiB
Duration                       : 1 h 38 min
Overall bit rate               : 11.8 Mb/s
Encoded date                   : UTC 2021-12-10 07:04:29
Writing application            : mkvmerge v63.0.0 ('Everything') 64-bit
Writing library                : libebml v1.4.2 + libmatroska v1.6.4
IsTruncated                    : Yes

Video
ID                             : 1
Format                         : HEVC
Format/Info                    : High Efficiency Video Coding
Format profile                 : Main 10@L5@High
Codec ID                       : V_MPEGH/ISO/HEVC
Duration                       : 1 h 38 min
Bit rate                       : 11.2 Mb/s
Width                          : 3 836 pixels
Height                         : 1 604 pixels
Display aspect ratio           : 2.40:1
Frame rate mode                : Constant
Frame rate                     : 23.976 (24000/1001) FPS
Color space                    : YUV
Chroma subsampling             : 4:2:0
Bit depth                      : 10 bits
Bits/(Pixel*Frame)             : 0.076
Stream size                    : 7.68 GiB (95%)
Default                        : Yes
Forced                         : No
Color range                    : Limited
Color primaries                : BT.709
Transfer characteristics       : BT.709
Matrix coefficients            : BT.709

Audio
ID                             : 2
Format                         : AC-3
Format/Info                    : Audio Coding 3
Commercial name                : Dolby Digital
Codec ID                       : A_AC3
Duration                       : 1 h 38 min
Bit rate mode                  : Constant
Bit rate                       : 384 kb/s
Channel(s)                     : 6 channels
Channel layout                 : L R C LFE Ls Rs
Sampling rate                  : 48.0 kHz
Frame rate                     : 31.250 FPS (1536 SPF)
Compression mode               : Lossy
Stream size                    : 270 MiB (3%)
Title                          : English
Language                       : English
Service kind                   : Complete Main
Default                        : No
Forced                         : No

Text
ID                             : 3
Format                         : UTF-8
Codec ID                       : S_TEXT/UTF8
Codec ID/Info                  : UTF-8 Plain Text
Language                       : English
Default                        : Yes
Forced                         : No
迅雷下载资源速度为零,资源敏感或被和谐时,推荐使用qBittorrent等无限速下载软件,有条件的推荐115更好的下载软件!

下载地址

游客,如果您要查看本帖隐藏内容请回复









上一篇:美国难民 / American Refugee (2021) 4K高清版下载
下一篇:不可饶恕(内封简繁中字)/The Unforgivable (2021) 4K高清版下载
回复

使用道具 举报

2

主题

1153

帖子

3475

积分

4K家园VIP

Rank: 9Rank: 9Rank: 9

积分
3475
发表于 2021-12-10 17:18:46 | 显示全部楼层
前排支持下了哦~
回复 支持 反对

使用道具 举报

0

主题

7236

帖子

1万

积分

4K家园VIP

Rank: 9Rank: 9Rank: 9

积分
16568
发表于 2021-12-10 17:25:46 | 显示全部楼层
太好啦&萬分感謝版主的無私發佈分享%
回复 支持 反对

使用道具 举报

46

主题

1449

帖子

4161

积分

4K家园VIP

Rank: 9Rank: 9Rank: 9

积分
4161
发表于 2021-12-10 17:34:09 | 显示全部楼层
4K电影下个试试
回复 支持 反对

使用道具 举报

0

主题

1353

帖子

3893

积分

中级会员

Rank: 4

积分
3893
发表于 2021-12-10 18:06:54 | 显示全部楼层
楼主呀,,,您太有才了。。。
回复 支持 反对

使用道具 举报

1

主题

14

帖子

515

积分

4K家园VIP

Rank: 9Rank: 9Rank: 9

积分
515
发表于 2021-12-10 19:39:34 | 显示全部楼层
内有中文字幕吗?没就不用下了!
回复 支持 反对

使用道具 举报

1

主题

1597

帖子

4413

积分

4K家园VIP

Rank: 9Rank: 9Rank: 9

积分
4413
发表于 2021-12-10 19:58:40 | 显示全部楼层
小白一个 顶一下
回复 支持 反对

使用道具 举报

0

主题

1319

帖子

3779

积分

4K家园VIP

Rank: 9Rank: 9Rank: 9

积分
3779
发表于 2021-12-10 21:41:18 | 显示全部楼层
4K版的应该更清晰吧
回复 支持 反对

使用道具 举报

0

主题

2

帖子

9

积分

新手上路

Rank: 1

积分
9
发表于 2021-12-11 04:37:46 来自手机 | 显示全部楼层
谢谢楼主
回复

使用道具 举报

0

主题

2

帖子

9

积分

新手上路

Rank: 1

积分
9
发表于 2021-12-11 04:38:31 来自手机 | 显示全部楼层
支持
回复

使用道具 举报

您需要登录后才可以回帖 登录 | 立即注册

本版积分规则

精彩图文
Archiver|手机版|TAG|Sitemap|新帖|专题|联系我们:邮箱: 4kjia.com@gmail.com   

4k家园   ©2019