[4K电影] 躯壳(内封中字) / The Empty Man (2020) 4K高清版下载

[复制链接]

1339

主题

1444

帖子

1万

积分

超级版主

Rank: 8Rank: 8

积分
11232
 楼主| 发表于 2021-12-11 09:43:42 | 显示全部楼层 |阅读模式
本帖最后由 最爱4K哟 于 2021-12-11 09:50 编辑

QQ图片20211211093438_副本.png

◎译  名 躯壳/空人(台)/空躯人
◎片  名 The Empty Man
◎年  代 2020
◎产  地 美国,法国
◎类  别 剧情 / 悬疑 / 惊悚 / 恐怖 / 犯罪
◎语  言 英语
◎上映日期 2020-10-23(美国)
◎IMDb评分  6.1/10 from 21197 users
◎IMDb链接  https://www.imdb.com/title/tt5867314/
◎豆瓣评分 5.8/10 from 1882 users
◎豆瓣链接 https://movie.douban.com/subject/26833203/
◎片  长 137分钟
◎导  演 大卫·普瑞尔 David Prior
◎编  剧 大卫·普瑞尔 David Prior / 卡伦·邦恩 Cullen Bunn
◎主  演 詹姆斯·戴尔 James Badge Dale
       斯蒂芬·鲁特 Stephen Root
       乔尔·考特尼 Joel Courtney
       马琳·爱尔兰 Marin Ireland
       亚伦·普尔 Aaron Poole
       罗伯特·阿拉马约 Robert Aramayo
       萨曼萨·罗根 Samantha Logan
       伊万·乔尼凯特 Evan Jonigkeit
       康纳·道兹 Conner Dowds
       杰西卡·马特 Jessica Matten
       罗恩·坎纳达 Ron Canada
       弗吉尼亚·库尔 Virginia Kull
       萨沙·弗若洛娃 Sasha Frolova
       欧文·泰格 Owen Teague
       杰米-李·蒙尼 Jamie-Lee Money
       坦娅·范·格拉恩 Tanya van Graan
       斯文·鲁格洛克 Sven Ruygrok
       韦尔·廷德尔 Vere Tindale
       蕾内·斯沃特 Reine Swart
       布莱恩·鲍曼 Brian Bowman


◎简  介

  改编自BOOM!Studio于2014年推出的同名漫画小说,由美国漫画届最高荣誉艾斯纳奖(Eisner Award)得主Cullen Bunn创作。讲述人类社会被一种名为“躯壳”的疾病困扰,患上这种病的人会性格易怒、出现幻觉与自杀倾向,变得有如灵魂被掏空的空人躯壳。疾病 爆发后,依然找不到解药,同时美国邪教组织兴起。FBI与CDC投入调查,希望能找寻一切真相。
General
Complete name                  : H:\The.Empty.Man.2020.2160p.DSNP.WEB-DL.DDP5.1.DV.MP4.x265-DVSUX.mp4
Format                         : MPEG-4
Format profile                 : Base Media / Version 2
Codec ID                       : mp42 (isom/mp42/dby1)
File size                      : 16.0 GiB
Duration                       : 2 h 16 min
Overall bit rate mode          : Variable
Overall bit rate               : 16.7 Mb/s
Encoded date                   : UTC 2021-12-10 12:47:06
Tagged date                    : UTC 2021-12-10 12:47:06
IsTruncated                    : Yes

Video
ID                             : 1
Format                         : HEVC
Format/Info                    : High Efficiency Video Coding
Format profile                 : Main 10@L5@High
HDR format                     : Dolby Vision, Version 1.0, dvhe.05.06, BL+RPU
Codec ID                       : dvhe
Codec ID/Info                  : High Efficiency Video Coding with Dolby Vision
Duration                       : 2 h 16 min
Bit rate                       : 16.5 Mb/s
Width                          : 3 840 pixels
Height                         : 2 160 pixels
Display aspect ratio           : 16:9
Frame rate mode                : Constant
Frame rate                     : 23.976 (24000/1001) FPS
Color space                    : YUV
Chroma subsampling             : 4:2:0
Bit depth                      : 10 bits
Bits/(Pixel*Frame)             : 0.083
Stream size                    : 15.8 GiB (99%)
Default                        : Yes
Alternate group                : 1
Encoded date                   : UTC 2021-12-10 12:41:40
Tagged date                    : UTC 2021-12-10 12:47:35
Color range                    : Full
Codec configuration box        : hvcC+dvcC

Audio
ID                             : 2
Format                         : E-AC-3
Format/Info                    : Enhanced AC-3
Commercial name                : Dolby Digital Plus
Codec ID                       : ec-3
Duration                       : 2 h 16 min
Bit rate mode                  : Constant
Bit rate                       : 256 kb/s
Maximum bit rate               : 270 kb/s
Channel(s)                     : 6 channels
Channel layout                 : L R C LFE Ls Rs
Sampling rate                  : 48.0 kHz
Frame rate                     : 31.250 FPS (1536 SPF)
Compression mode               : Lossy
Stream size                    : 251 MiB (2%)
Title                          : English
Language                       : English
Service kind                   : Complete Main
Default                        : Yes
Alternate group                : 1
Tagged date                    : UTC 2021-12-10 12:47:35

Text #1
ID                             : 3
Format                         : Timed Text
Codec ID                       : tx3g
Duration                       : 2 h 10 min
Bit rate mode                  : Variable
Bit rate                       : 36 b/s
Stream size                    : 34.9 KiB (0%)
Title                          : English
Language                       : English
Forced                         : No
Encoded date                   : UTC 2021-12-10 12:47:32
Tagged date                    : UTC 2021-12-10 12:47:35

Text #2
ID                             : 4
Format                         : Timed Text
Codec ID                       : tx3g
Duration                       : 2 h 12 min
Bit rate mode                  : Variable
Bit rate                       : 44 b/s
Stream size                    : 43.0 KiB (0%)
Title                          : English
Language                       : English
Forced                         : No
Encoded date                   : UTC 2021-12-10 12:47:32
Tagged date                    : UTC 2021-12-10 12:47:35

Text #3
ID                             : 5
Format                         : Timed Text
Codec ID                       : tx3g
Duration                       : 2 h 12 min
Bit rate mode                  : Variable
Bit rate                       : 34 b/s
Stream size                    : 33.1 KiB (0%)
Title                          : 中文(简体)
Language                       : 中文
Forced                         : No
Encoded date                   : UTC 2021-12-10 12:47:32
Tagged date                    : UTC 2021-12-10 12:47:35


Text #4
ID                             : 6
Format                         : Timed Text
Codec ID                       : tx3g
Duration                       : 2 h 16 min
Bit rate mode                  : Variable
Bit rate                       : 34 b/s
Stream size                    : 34.5 KiB (0%)
Title                          : Danish
Language                       : Danish
Forced                         : No
Encoded date                   : UTC 2021-12-10 12:47:33
Tagged date                    : UTC 2021-12-10 12:47:35

Text #5
ID                             : 7
Format                         : Timed Text
Codec ID                       : tx3g
Duration                       : 2 h 16 min
Bit rate mode                  : Variable
Bit rate                       : 28 b/s
Stream size                    : 28.4 KiB (0%)
Title                          : Dutch
Language                       : Dutch
Forced                         : No
Encoded date                   : UTC 2021-12-10 12:47:33
Tagged date                    : UTC 2021-12-10 12:47:35

Text #6
ID                             : 8
Format                         : Timed Text
Codec ID                       : tx3g
Duration                       : 2 h 16 min
Bit rate mode                  : Variable
Bit rate                       : 34 b/s
Stream size                    : 33.8 KiB (0%)
Title                          : Finnish
Language                       : Finnish
Forced                         : No
Encoded date                   : UTC 2021-12-10 12:47:33
Tagged date                    : UTC 2021-12-10 12:47:35

Text #7
ID                             : 9
Format                         : Timed Text
Codec ID                       : tx3g
Duration                       : 2 h 16 min
Bit rate mode                  : Variable
Bit rate                       : 30 b/s
Stream size                    : 30.0 KiB (0%)
Title                          : French
Language                       : French
Forced                         : No
Encoded date                   : UTC 2021-12-10 12:47:33
Tagged date                    : UTC 2021-12-10 12:47:35

Text #8
ID                             : 10
Format                         : Timed Text
Codec ID                       : tx3g
Duration                       : 2 h 16 min
Bit rate mode                  : Variable
Bit rate                       : 37 b/s
Stream size                    : 36.7 KiB (0%)
Title                          : French-CA
Language                       : French
Forced                         : No
Encoded date                   : UTC 2021-12-10 12:47:33
Tagged date                    : UTC 2021-12-10 12:47:35

Text #9
ID                             : 11
Format                         : Timed Text
Codec ID                       : tx3g
Duration                       : 2 h 16 min
Bit rate mode                  : Variable
Bit rate                       : 29 b/s
Stream size                    : 29.5 KiB (0%)
Title                          : German
Language                       : German
Forced                         : No
Encoded date                   : UTC 2021-12-10 12:47:33
Tagged date                    : UTC 2021-12-10 12:47:35

Text #10
ID                             : 12
Format                         : Timed Text
Codec ID                       : tx3g
Duration                       : 2 h 16 min
Bit rate mode                  : Variable
Bit rate                       : 34 b/s
Stream size                    : 34.0 KiB (0%)
Title                          : Italian
Language                       : Italian
Forced                         : No
Encoded date                   : UTC 2021-12-10 12:47:33
Tagged date                    : UTC 2021-12-10 12:47:35

Text #11
ID                             : 13
Format                         : Timed Text
Codec ID                       : tx3g
Duration                       : 2 h 16 min
Bit rate mode                  : Variable
Bit rate                       : 28 b/s
Stream size                    : 28.5 KiB (0%)
Title                          : Japanese
Language                       : Japanese
Forced                         : No
Encoded date                   : UTC 2021-12-10 12:47:33
Tagged date                    : UTC 2021-12-10 12:47:35

Text #12
ID                             : 14
Format                         : Timed Text
Codec ID                       : tx3g
Duration                       : 2 h 12 min
Bit rate mode                  : Variable
Bit rate                       : 36 b/s
Stream size                    : 35.2 KiB (0%)
Title                          : Korean
Language                       : Korean
Forced                         : No
Encoded date                   : UTC 2021-12-10 12:47:34
Tagged date                    : UTC 2021-12-10 12:47:35

Text #13
ID                             : 15
Format                         : Timed Text
Codec ID                       : tx3g
Duration                       : 2 h 16 min
Bit rate mode                  : Variable
Bit rate                       : 31 b/s
Stream size                    : 31.1 KiB (0%)
Title                          : Norwegian
Language                       : Norwegian
Forced                         : No
Encoded date                   : UTC 2021-12-10 12:47:34
Tagged date                    : UTC 2021-12-10 12:47:35

Text #14
ID                             : 16
Format                         : Timed Text
Codec ID                       : tx3g
Duration                       : 2 h 16 min
Bit rate mode                  : Variable
Bit rate                       : 34 b/s
Stream size                    : 34.1 KiB (0%)
Title                          : Portuguese
Language                       : Portuguese
Forced                         : No
Encoded date                   : UTC 2021-12-10 12:47:34
Tagged date                    : UTC 2021-12-10 12:47:35

Text #15
ID                             : 17
Format                         : Timed Text
Codec ID                       : tx3g
Duration                       : 2 h 16 min
Bit rate mode                  : Variable
Bit rate                       : 34 b/s
Stream size                    : 33.6 KiB (0%)
Title                          : Portuguese-BR
Language                       : Portuguese
Forced                         : No
Encoded date                   : UTC 2021-12-10 12:47:35
Tagged date                    : UTC 2021-12-10 12:47:35

Text #16
ID                             : 18
Format                         : Timed Text
Codec ID                       : tx3g
Duration                       : 2 h 12 min
Bit rate mode                  : Variable
Bit rate                       : 37 b/s
Stream size                    : 36.2 KiB (0%)
Title                          : Spanish
Language                       : Spanish
Forced                         : No
Encoded date                   : UTC 2021-12-10 12:47:35
Tagged date                    : UTC 2021-12-10 12:47:35

Text #17
ID                             : 19
Format                         : Timed Text
Codec ID                       : tx3g
Duration                       : 2 h 16 min
Bit rate mode                  : Variable
Bit rate                       : 33 b/s
Stream size                    : 33.1 KiB (0%)
Title                          : Spanish-EU
Language                       : Spanish
Forced                         : No
Encoded date                   : UTC 2021-12-10 12:47:35
Tagged date                    : UTC 2021-12-10 12:47:35

Text #18
ID                             : 20
Format                         : Timed Text
Codec ID                       : tx3g
Duration                       : 2 h 16 min
Bit rate mode                  : Variable
Bit rate                       : 35 b/s
Stream size                    : 35.1 KiB (0%)
Title                          : Swedish
Language                       : Swedish
Forced                         : No
Encoded date                   : UTC 2021-12-10 12:47:35
Tagged date                    : UTC 2021-12-10 12:47:35

迅雷下载资源速度为零,资源敏感或被和谐时,推荐使用qBittorrent等无限速下载软件,有条件的推荐115更好的下载软件!

下载地址

游客,如果您要查看本帖隐藏内容请回复

游客,如果您要查看本帖隐藏内容请回复


其他4K版本下载链接:[4K首发资源]《躯壳/空人(台)》4K高清下载/14.81GB







上一篇:不可饶恕(内封简繁中字)/The Unforgivable (2021) 4K高清版下载
下一篇:黑镜:潘达斯奈基(内封简繁中字) (2018) 4K高清版下载
回复

使用道具 举报

2

主题

1599

帖子

4397

积分

4K家园VIP

Rank: 9Rank: 9Rank: 9

积分
4397
发表于 2021-12-11 09:43:46 | 显示全部楼层
差评
回复 支持 反对

使用道具 举报

44

主题

1429

帖子

4131

积分

4K家园VIP

Rank: 9Rank: 9Rank: 9

积分
4131
发表于 2021-12-11 10:01:38 | 显示全部楼层
感谢推荐,确实不错
回复 支持 反对

使用道具 举报

44

主题

1437

帖子

4157

积分

4K家园VIP

Rank: 9Rank: 9Rank: 9

积分
4157
发表于 2021-12-11 10:58:58 | 显示全部楼层
看着好像不错
回复 支持 反对

使用道具 举报

1

主题

1307

帖子

3937

积分

4K家园VIP

Rank: 9Rank: 9Rank: 9

积分
3937
发表于 2021-12-11 11:47:02 | 显示全部楼层
非常好,顶一下
回复 支持 反对

使用道具 举报

0

主题

7280

帖子

1万

积分

4K家园VIP

Rank: 9Rank: 9Rank: 9

积分
16651
发表于 2021-12-11 11:55:23 | 显示全部楼层
太好啦&萬分感謝版主的無私發佈分享%
回复 支持 反对

使用道具 举报

1

主题

1640

帖子

4576

积分

4K家园VIP

Rank: 9Rank: 9Rank: 9

积分
4576
发表于 2021-12-11 12:50:59 | 显示全部楼层
楼猪辛苦了,支持一下分享好资源
回复 支持 反对

使用道具 举报

0

主题

2

帖子

13

积分

新手上路

Rank: 1

积分
13
发表于 2021-12-11 21:48:13 | 显示全部楼层
感谢分享,
回复

使用道具 举报

您需要登录后才可以回帖 登录 | 立即注册

本版积分规则

精彩图文
Archiver|手机版|TAG|Sitemap|新帖|专题|联系我们:邮箱: 4kjia.com@gmail.com   

4k家园   ©2019