[4K电影] 神弃之地 / The Devil All the Time (2020) 4K高清版下载

[复制链接]

1339

主题

1444

帖子

1万

积分

超级版主

Rank: 8Rank: 8

积分
11232
 楼主| 发表于 2021-12-11 17:20:50 | 显示全部楼层 |阅读模式
本帖最后由 最爱4K哟 于 2021-12-11 17:23 编辑

QQ图片20211211170918_副本.png

◎译  名 神弃之地/恶魔每时每刻
◎片  名 The Devil All the Time
◎年  代 2020
◎产  地 美国
◎类  别 剧情/惊悚片">惊悚
◎语  言 英语
◎字  幕 中字
◎上映日期 2020-09-16(美国)
◎IMDb评分  7.1/10 from 116771 users
◎IMDb链接  https://www.imdb.com/title/tt7395114/
◎豆瓣评分 7.0/10 from 17098 users
◎豆瓣链接 https://douban.com/subject/1308807/
◎片  长 138分钟
◎导  演 安东尼奥·坎波斯 Antonio Campos
◎编  剧 安东尼奥·坎波斯 Antonio Campos / 保罗·坎波斯 Paulo Campos / 唐纳德·雷·波洛克 Donald Ray Pollock
◎主  演 汤姆·赫兰德 Tom Holland
       比尔·斯卡斯加德 Bill Skarsgård
       罗伯特·帕丁森 Robert Pattinson
       塞巴斯蒂安·斯坦 Sebastian Stan
       杰森·克拉克 Jason Clarke
       丽莉·吉欧 Riley Keough
       海莉·贝内特 Haley Bennett
       米娅·华希科沃斯卡 Mia Wasikowska
       伊莱扎·斯坎伦 Eliza Scanlen
       哈利·米尔林 Harry Melling
       道格拉斯·霍奇斯 Douglas Hodges
       格雷戈瑞·凯利 Gregory Kelly
       大卫·马尔登那多 David Maldonado
       科里·斯科特·艾伦 Cory Scott Allen
       马克·杰弗里·米勒 Mark Jeffrey Miller
       艾比·格洛弗 Abby Glover


◎简  介


   2019年2月开拍。讲述俄亥俄州偏远之地Knockemstiff,男主角Willard Russell绝望地想拯救濒死的妻子,不惜屈服于牺牲,而他的儿子(霍兰德)正从一个在学校被虐 待的孩子成长为知道何时出手的男人,角色包括一对连环杀手夫妇、一个考验人的信仰的传教士、一个腐败的当地警长(埃文斯)

General
Complete name                  : H:\4K@电影\The.Devil.All.the.Time.2020.HDR.2160p.WEBRip.x265-iNTENSO.mkv
Format                         : Matroska
Format version                 : Version 4
File size                      : 15.7 GiB
Duration                       : 2 h 18 min
Overall bit rate               : 16.2 Mb/s
Encoded date                   : UTC 2020-10-25 18:46:44
Writing application            : mkvmerge v8.2.0 ('World of Adventure') 32bit
Writing library                : libebml v1.3.1 + libmatroska v1.4.2
IsTruncated                    : Yes

Video
ID                             : 1
Format                         : HEVC
Format/Info                    : High Efficiency Video Coding
Format profile                 : Main 10@L5.1@High
HDR format                     : SMPTE ST 2086, HDR10 compatible
Codec ID                       : V_MPEGH/ISO/HEVC
Duration                       : 2 h 18 min
Bit rate                       : 15.1 Mb/s
Width                          : 3 840 pixels
Height                         : 1 608 pixels
Display aspect ratio           : 2.40:1
Frame rate mode                : Constant
Frame rate                     : 24.000 FPS
Color space                    : YUV
Chroma subsampling             : 4:2:0 (Type 2)
Bit depth                      : 10 bits
Bits/(Pixel*Frame)             : 0.102
Stream size                    : 14.7 GiB (93%)
Writing library                : x265 3.4+2-73ca1d7be377:[Windows][GCC 10.2.1][64 bit] 10bit
Encoding settings              : cpuid=1111039 / frame-threads=4 / numa-pools=16 / wpp / no-pmode / no-pme / no-psnr / no-ssim / log-level=2 / input-csp=1 / input-res=3840x1608 / interlace=0 / total-frames=0 / level-idc=51 / high-tier=1 / uhd-bd=0 / ref=4 / no-allow-non-conformance / repeat-headers / annexb / no-aud / no-hrd / info / hash=0 / no-temporal-layers / no-open-gop / min-keyint=24 / keyint=250 / gop-lookahead=0 / bframes=3 / b-adapt=2 / b-pyramid / bframe-bias=0 / rc-lookahead=20 / lookahead-slices=8 / scenecut=40 / hist-scenecut=0 / radl=0 / no-splice / no-intra-refresh / ctu=64 / min-cu-size=8 / no-rect / no-amp / max-tu-size=32 / tu-inter-depth=1 / tu-intra-depth=1 / limit-tu=0 / rdoq-level=0 / dynamic-rd=0.00 / no-ssim-rd / signhide / no-tskip / nr-intra=0 / nr-inter=0 / no-constrained-intra / no-strong-intra-smoothing / max-merge=3 / limit-refs=1 / no-limit-modes / me=1 / subme=2 / merange=57 / temporal-mvp / no-frame-dup / no-hme / weightp / no-weightb / no-analyze-src-pics / deblock=-3:-3 / no-sao / no-sao-non-deblock / rd=3 / selective-sao=0 / early-skip / rskip / no-fast-intra / no-tskip-fast / no-cu-lossless / b-intra / no-splitrd-skip / rdpenalty=0 / psy-rd=2.00 / psy-rdoq=0.00 / no-rd-refine / no-lossless / cbqpoffs=0 / crqpoffs=0 / rc=crf / crf=19.0 / qcomp=0.60 / qpstep=4 / stats-write=0 / stats-read=0 / vbv-maxrate=160000 / vbv-bufsize=160000 / vbv-init=0.9 / crf-max=0.0 / crf-min=0.0 / ipratio=1.40 / pbratio=1.30 / aq-mode=2 / aq-strength=1.00 / no-cutree / zone-count=0 / no-strict-cbr / qg-size=32 / no-rc-grain / qpmax=69 / qpmin=0 / no-const-vbv / sar=0 / overscan=0 / videoformat=5 / range=0 / colorprim=9 / transfer=16 / colormatrix=9 / chromaloc=1 / chromaloc-top=2 / chromaloc-bottom=2 / display-window=0 / master-display=G(13250,34500)B(7500,3000)R(34000,16000)WP(15635,16450)L(10000000,1) / cll=940,97 / min-luma=0 / max-luma=1023 / log2-max-poc-lsb=8 / vui-timing-info / vui-hrd-info / slices=1 / no-opt-qp-pps / no-opt-ref-list-length-pps / no-multi-pass-opt-rps / scenecut-bias=0.05 / hist-threshold=0.01 / no-opt-cu-delta-qp / no-aq-motion / hdr10 / hdr10-opt / no-dhdr10-opt / no-idr-recovery-sei / analysis-reuse-level=0 / analysis-save-reuse-level=0 / analysis-load-reuse-level=0 / scale-factor=0 / refine-intra=0 / refine-inter=0 / refine-mv=1 / refine-ctu-distortion=0 / no-limit-sao / ctu-info=0 / no-lowpass-dct / refine-analysis-type=0 / copy-pic=1 / max-ausize-factor=1.0 / no-dynamic-refine / no-single-sei / no-hevc-aq / no-svt / no-field / qp-adaptation-range=1.00 / no-scenecut-aware-qpconformance-window-offsets / right=0 / bottom=0 / decoder-max-rate=0
Language                       : English
Default                        : Yes
Forced                         : No
Color range                    : Limited
Color primaries                : BT.2020
Transfer characteristics       : PQ
Matrix coefficients            : BT.2020 non-constant
Mastering display color primar : Display P3
Mastering display luminance    : min: 0.0001 cd/m2, max: 1000 cd/m2
Maximum Content Light Level    : 940 cd/m2
Maximum Frame-Average Light Le : 97 cd/m2

Audio
ID                             : 2
Format                         : E-AC-3 JOC
Format/Info                    : Enhanced AC-3 with Joint Object Coding
Commercial name                : Dolby Digital Plus with Dolby Atmos
Codec ID                       : A_EAC3
Duration                       : 2 h 18 min
Bit rate mode                  : Constant
Bit rate                       : 768 kb/s
Channel(s)                     : 6 channels
Channel layout                 : L R C LFE Ls Rs
Sampling rate                  : 48.0 kHz
Frame rate                     : 31.250 FPS (1536 SPF)
Compression mode               : Lossy
Delay relative to video        : 8 ms
Stream size                    : 763 MiB (5%)
Title                          : Dolby Digital Plus ATMOS
Language                       : English
Service kind                   : Complete Main
Default                        : No
Forced                         : No
Complexity index               : 16
Number of dynamic objects      : 15
Bed channel count              : 1 channel
Bed channel configuration      : LFE

Text
ID                             : 3
Format                         : UTF-8
Codec ID                       : S_TEXT/UTF8
Codec ID/Info                  : UTF-8 Plain Text
Language                       : English
Default                        : No
Forced                         : No

迅雷下载资源速度为零,资源敏感或被和谐时,推荐使用qBittorrent等无限速下载软件,有条件的推荐115更好的下载软件!

下载地址

****此区域为收费内容****    需支付 9 金币后可查看立即购买







上一篇:哈尔的移动城堡/Howls.Moving.Castle (2004) 4K高清版下载
下一篇:美国刺客 / American Sicario (2021) 4K高清版下载
回复

使用道具 举报

2

主题

1669

帖子

4599

积分

4K家园VIP

Rank: 9Rank: 9Rank: 9

积分
4599
发表于 2021-12-11 17:20:57 | 显示全部楼层
为毛老子总也抢不到沙发?!!
回复 支持 反对

使用道具 举报

1

主题

1582

帖子

4352

积分

4K家园VIP

Rank: 9Rank: 9Rank: 9

积分
4352
发表于 2021-12-11 18:15:00 | 显示全部楼层
众里寻他千百度,蓦然回首在这里!
回复 支持 反对

使用道具 举报

0

主题

7280

帖子

1万

积分

4K家园VIP

Rank: 9Rank: 9Rank: 9

积分
16651
发表于 2021-12-11 18:52:22 | 显示全部楼层
太好啦&萬分感謝版主的無私發佈分享%
回复 支持 反对

使用道具 举报

3

主题

1588

帖子

4404

积分

4K家园VIP

Rank: 9Rank: 9Rank: 9

积分
4404
发表于 2021-12-11 20:42:31 | 显示全部楼层
嘘,低调。
回复 支持 反对

使用道具 举报

1

主题

1314

帖子

3960

积分

4K家园VIP

Rank: 9Rank: 9Rank: 9

积分
3960
发表于 2021-12-11 23:04:30 | 显示全部楼层
哈哈,我只看看不说话
回复 支持 反对

使用道具 举报

1

主题

1291

帖子

3889

积分

4K家园VIP

Rank: 9Rank: 9Rank: 9

积分
3889
发表于 2021-12-11 23:21:30 | 显示全部楼层
非常好,顶一下
回复 支持 反对

使用道具 举报

您需要登录后才可以回帖 登录 | 立即注册

本版积分规则

精彩图文
Archiver|手机版|TAG|Sitemap|新帖|专题|联系我们:邮箱: 4kjia.com@gmail.com   

4k家园   ©2019