[4K电影] 美国刺客 / American Sicario (2021) 4K高清版下载

[复制链接]

1323

主题

1428

帖子

1万

积分

超级版主

Rank: 8Rank: 8

积分
11131
 楼主| 发表于 2021-12-11 17:33:18 | 显示全部楼层 |阅读模式
本帖最后由 最爱4K哟 于 2021-12-11 18:04 编辑

QQ图片20211211170621_副本.png

◎译  名 美国刺客 / 美国杀手 / 乱战
◎片  名 American Sicario
◎年  代 2021
◎产  地 美国
◎类  别 剧情 / 动作 / 犯罪
◎语  言 英语
◎上映日期 2021-12-10(美国)
◎IMDb评分  4.0/10 from 28 users
◎IMDb链接  https://www.imdb.com/title/tt13322120/
◎豆瓣评分 0/10 from 0 users
◎豆瓣链接 https://movie.douban.com/subject/35669440/
◎片  长 119分钟
◎导  演 RJ柯林斯
◎编  剧 RJ柯林斯
◎演  员 丹尼·特雷霍
       玛雅·斯托扬
       莫里斯·孔特
       狄恩·巴斯科
                   Johnny Rey Diaz
                   狄恩·巴斯科
                   菲利普A.哈达德




◎简  介


  美国匪徒埃里克·瓦斯奎兹(Philippe A.Haddad)正计划成为墨西哥黑社会的头号人物,却发现自己与强大的卡特尔和自己的盟友为敌。
General
Complete name                  : H:\4K@电影\American.Sicario.2021.2160p.WEB-DL.DD5.1.HEVC-EVO.mkv
Format                         : Matroska
Format version                 : Version 4
File size                      : 8.76 GiB
Duration                       : 1 h 41 min
Overall bit rate               : 12.4 Mb/s
Encoded date                   : UTC 2021-12-10 05:07:16
Writing application            : mkvmerge v45.0.0 ('Heaven in Pennies') 64-bit
Writing library                : libebml v1.3.10 + libmatroska v1.5.2

Video
ID                             : 1
Format                         : HEVC
Format/Info                    : High Efficiency Video Coding
Format profile                 : Main 10@L5@High
Codec ID                       : V_MPEGH/ISO/HEVC
Duration                       : 1 h 41 min
Bit rate                       : 12.0 Mb/s
Width                          : 3 832 pixels
Height                         : 1 592 pixels
Display aspect ratio           : 2.40:1
Frame rate mode                : Constant
Frame rate                     : 23.976 (24000/1001) FPS
Color space                    : YUV
Chroma subsampling             : 4:2:0
Bit depth                      : 10 bits
Bits/(Pixel*Frame)             : 0.082
Stream size                    : 8.49 GiB (97%)
Default                        : Yes
Forced                         : No
Color range                    : Limited
Color primaries                : BT.709
Transfer characteristics       : BT.709
Matrix coefficients            : BT.709

Audio
ID                             : 2
Format                         : AC-3
Format/Info                    : Audio Coding 3
Commercial name                : Dolby Digital
Codec ID                       : A_AC3
Duration                       : 1 h 41 min
Bit rate mode                  : Constant
Bit rate                       : 384 kb/s
Channel(s)                     : 6 channels
Channel layout                 : L R C LFE Ls Rs
Sampling rate                  : 48.0 kHz
Frame rate                     : 31.250 FPS (1536 SPF)
Compression mode               : Lossy
Stream size                    : 278 MiB (3%)
Title                          : English
Language                       : English
Service kind                   : Complete Main
Default                        : No
Forced                         : No

迅雷下载资源速度为零,资源敏感或被和谐时,推荐使用qBittorrent等无限速下载软件,有条件的推荐115更好的下载软件!

下载地址

****此区域为收费内容****    需支付 9 金币后可查看立即购买





.

上一篇:神弃之地 / The Devil All the Time (2020) 4K高清版下载
下一篇:鹿角 / Antlers (2021) 4K高清版下载
回复

使用道具 举报

1323

主题

1428

帖子

1万

积分

超级版主

Rank: 8Rank: 8

积分
11131
 楼主| 发表于 2021-12-11 18:08:13 | 显示全部楼层
American.Sicario.2021.2160p.WEB-DL.DD5.1.HEVC-EVO.mkv_20211211_180516.254.jpg American.Sicario.2021.2160p.WEB-DL.DD5.1.HEVC-EVO.mkv_20211211_180531.133.jpg American.Sicario.2021.2160p.WEB-DL.DD5.1.HEVC-EVO.mkv_20211211_180536.125.jpg American.Sicario.2021.2160p.WEB-DL.DD5.1.HEVC-EVO.mkv_20211211_180613.901.jpg American.Sicario.2021.2160p.WEB-DL.DD5.1.HEVC-EVO.mkv_20211211_180620.021.jpg American.Sicario.2021.2160p.WEB-DL.DD5.1.HEVC-EVO.mkv_20211211_180638.717.jpg
回复 支持 反对

使用道具 举报

34

主题

1510

帖子

4240

积分

4K家园VIP

Rank: 9Rank: 9Rank: 9

积分
4240
发表于 2021-12-11 17:33:23 | 显示全部楼层
怎么这么大,希望我电视能看啊
回复 支持 反对

使用道具 举报

0

主题

7236

帖子

1万

积分

4K家园VIP

Rank: 9Rank: 9Rank: 9

积分
16568
发表于 2021-12-11 18:52:48 | 显示全部楼层
太好啦&萬分感謝版主的無私發佈分享%
回复 支持 反对

使用道具 举报

0

主题

1300

帖子

3912

积分

4K家园VIP

Rank: 9Rank: 9Rank: 9

积分
3912
发表于 2021-12-12 01:52:45 | 显示全部楼层
我也是坐沙发的
回复 支持 反对

使用道具 举报

0

主题

237

帖子

1455

积分

注册会员

Rank: 2

积分
1455
发表于 2021-12-12 14:58:28 | 显示全部楼层
感謝版主的無私發佈
回复 支持 反对

使用道具 举报

37

主题

1498

帖子

4272

积分

4K家园VIP

Rank: 9Rank: 9Rank: 9

积分
4272
发表于 2021-12-13 07:25:27 | 显示全部楼层
楼猪V5啊
回复 支持 反对

使用道具 举报

2

主题

1347

帖子

4065

积分

4K家园VIP

Rank: 9Rank: 9Rank: 9

积分
4065
发表于 2021-12-13 13:18:28 | 显示全部楼层
前排支持下
回复 支持 反对

使用道具 举报

40

主题

1456

帖子

4184

积分

4K家园VIP

Rank: 9Rank: 9Rank: 9

积分
4184
发表于 2021-12-17 04:06:31 | 显示全部楼层
4K版的应该更清晰吧
回复 支持 反对

使用道具 举报

您需要登录后才可以回帖 登录 | 立即注册

本版积分规则

精彩图文
Archiver|手机版|TAG|Sitemap|新帖|专题|联系我们:邮箱: 4kjia.com@gmail.com   

4k家园   ©2019