[4Kjia独享4K资源] 法兰西特派 / The French Dispatch (2021) 4K高清版下载

[复制链接]

1339

主题

1444

帖子

1万

积分

超级版主

Rank: 8Rank: 8

积分
11232
 楼主| 发表于 2021-12-14 10:40:30 | 显示全部楼层 |阅读模式
本帖最后由 最爱4K哟 于 2021-12-16 11:11 编辑

QQ图片20211214102919_副本.png

◎译  名 法兰西特派
◎片  名 The French Dispatch
◎年  代 2021
◎产  地 德国 / 美国
◎类  别 剧情 / 喜剧 / 爱情
◎语  言 英语 / 法语
◎上映日期 2021-07-12(戛纳电影节) / 2021-10-22(美国) / 2021-12-14(美国网络)
◎IMDb评分  7.5/10 from 36565 users
◎IMDb链接  https://www.imdb.com/title/tt8847712
◎豆瓣评分 7.9/10 from 4362 users
◎豆瓣链接 https://movie.douban.com/subject/30300279/
◎片  长 108分钟
◎导  演 韦斯·安德森
◎编  剧 大卫·普瑞尔 David Prior / 卡伦·邦恩 Cullen Bunn
◎主  演 弗兰西斯·麦克多蒙德                  
                   蒂莫西·柴勒梅德
                   西尔莎·罗南
                   蒂尔达·斯文顿
                   爱德华·诺顿
                   蕾雅·赛杜
                   伊丽莎白·莫斯
                   欧文·威尔逊
                  克里斯托弗·瓦尔兹
                  艾德里安·布洛迪
                  威廉·达福
                  比尔·默瑞
                  本尼西奥·德尔·托罗
                  费舍·史蒂芬斯
                  鲁伯特·弗兰德

◎简  介


        本片是给20世纪一家美国报纸驻巴黎前哨站记者们的一封情书,并以三条故事线为中心。


General
Complete name                  : H:\4K@电影\The.French.Dispatch.of.the.Liberty.Kansas.Evening.Sun.2021.2160p.WEB-DL.DD5.1.HEVC-EVO.mkv
Format                         : Matroska
Format version                 : Version 4
File size                      : 9.36 GiB
Duration                       : 1 h 47 min
Overall bit rate               : 12.5 Mb/s
Encoded date                   : UTC 2021-12-14 00:03:37
Writing application            : mkvmerge v45.0.0 ('Heaven in Pennies') 64-bit
Writing library                : libebml v1.3.10 + libmatroska v1.5.2

Video
ID                             : 1
Format                         : HEVC
Format/Info                    : High Efficiency Video Coding
Format profile                 : Main 10@L5@High
Codec ID                       : V_MPEGH/ISO/HEVC
Duration                       : 1 h 47 min
Bit rate                       : 12.1 Mb/s
Width                          : 3 840 pixels
Height                         : 2 076 pixels
Display aspect ratio           : 1.85:1
Frame rate mode                : Constant
Frame rate                     : 23.976 (24000/1001) FPS
Color space                    : YUV
Chroma subsampling             : 4:2:0
Bit depth                      : 10 bits
Bits/(Pixel*Frame)             : 0.063
Stream size                    : 9.07 GiB (97%)
Default                        : Yes
Forced                         : No
Color range                    : Limited
Color primaries                : BT.709
Transfer characteristics       : BT.709
Matrix coefficients            : BT.709

Audio
ID                             : 2
Format                         : AC-3
Format/Info                    : Audio Coding 3
Commercial name                : Dolby Digital
Codec ID                       : A_AC3
Duration                       : 1 h 47 min
Bit rate mode                  : Constant
Bit rate                       : 384 kb/s
Channel(s)                     : 6 channels
Channel layout                 : L R C LFE Ls Rs
Sampling rate                  : 48.0 kHz
Frame rate                     : 31.250 FPS (1536 SPF)
Compression mode               : Lossy
Stream size                    : 296 MiB (3%)
Title                          : English
Language                       : English
Service kind                   : Complete Main
Default                        : No
Forced                         : No

迅雷下载资源速度为零,资源敏感或被和谐时,推荐使用qBittorrent等无限速下载软件,有条件的推荐115更好的下载软件!

下载地址

****此区域为收费内容****    需支付 9 金币后可查看立即购买










上一篇:鹿角 / Antlers (2021) 4K高清版下载
下一篇:智能大反攻 (俄版)/The Mitchells vs. The Machines(2021) 4K高清版下载
回复

使用道具 举报

1339

主题

1444

帖子

1万

积分

超级版主

Rank: 8Rank: 8

积分
11232
 楼主| 发表于 2021-12-14 11:58:33 | 显示全部楼层
本帖最后由 最爱4K哟 于 2021-12-14 12:00 编辑

The.French.Dispatch.of.the.Liberty.Kansas.Evening.Sun.2021.2160p.WEB-DL.DD5.1.HE.jpg The.French.Dispatch.of.the.Liberty.Kansas.Evening.Sun.2021.2160p.WEB-DL.DD5.1.HE.jpg The.French.Dispatch.of.the.Liberty.Kansas.Evening.Sun.2021.2160p.WEB-DL.DD5.1.HE.jpg The.French.Dispatch.of.the.Liberty.Kansas.Evening.Sun.2021.2160p.WEB-DL.DD5.1.HE.jpg The.French.Dispatch.of.the.Liberty.Kansas.Evening.Sun.2021.2160p.WEB-DL.DD5.1.HE.jpg The.French.Dispatch.of.the.Liberty.Kansas.Evening.Sun.2021.2160p.WEB-DL.DD5.1.HE.jpg
The.French.Dispatch.of.the.Liberty.Kansas.Evening.Sun.2021.2160p.WEB-DL.DD5.1.HE.jpg
The.French.Dispatch.of.the.Liberty.Kansas.Evening.Sun.2021.2160p.WEB-DL.DD5.1.HE.jpg
The.French.Dispatch.of.the.Liberty.Kansas.Evening.Sun.2021.2160p.WEB-DL.DD5.1.HE.jpg
The.French.Dispatch.of.the.Liberty.Kansas.Evening.Sun.2021.2160p.WEB-DL.DD5.1.HE.jpg
The.French.Dispatch.of.the.Liberty.Kansas.Evening.Sun.2021.2160p.WEB-DL.DD5.1.HE.jpg
The.French.Dispatch.of.the.Liberty.Kansas.Evening.Sun.2021.2160p.WEB-DL.DD5.1.HE.jpg
回复 支持 反对

使用道具 举报

1

主题

1349

帖子

3901

积分

4K家园VIP

Rank: 9Rank: 9Rank: 9

积分
3901
发表于 2021-12-14 10:40:35 | 显示全部楼层
沙发位出租,
回复 支持 反对

使用道具 举报

0

主题

7280

帖子

1万

积分

4K家园VIP

Rank: 9Rank: 9Rank: 9

积分
16651
发表于 2021-12-14 11:49:01 | 显示全部楼层
太好啦&萬分感謝版主的無私發佈分享%
回复 支持 反对

使用道具 举报

1

主题

1355

帖子

3911

积分

4K家园VIP

Rank: 9Rank: 9Rank: 9

积分
3911
发表于 2021-12-17 03:12:57 | 显示全部楼层
4K家园资源不错,前排支持
回复 支持 反对

使用道具 举报

4

主题

1324

帖子

3994

积分

4K家园VIP

Rank: 9Rank: 9Rank: 9

积分
3994
发表于 2021-12-18 23:18:22 | 显示全部楼层
好像还可以
回复 支持 反对

使用道具 举报

61

主题

1448

帖子

4166

积分

4K家园VIP

Rank: 9Rank: 9Rank: 9

积分
4166
发表于 2021-12-19 21:30:19 | 显示全部楼层
看帖要回,回帖才健康,在踩踩,楼主辛苦了!
回复 支持 反对

使用道具 举报

0

主题

1346

帖子

3836

积分

中级会员

Rank: 4

积分
3836
发表于 2021-12-24 07:49:55 | 显示全部楼层
珍爱生命,果断回帖。
回复 支持 反对

使用道具 举报

您需要登录后才可以回帖 登录 | 立即注册

本版积分规则

精彩图文
Archiver|手机版|TAG|Sitemap|新帖|专题|联系我们:邮箱: 4kjia.com@gmail.com   

4k家园   ©2019