[4K UHD 蓝光原盘] 水形物语 (内嵌中字) (2017) 4K蓝光[原盘+REMUX]版本下载[补档]

[复制链接]

1314

主题

1381

帖子

1万

积分

超级版主

Rank: 8Rank: 8

积分
15409
 楼主| 发表于 2021-12-14 12:56:53 | 显示全部楼层 |阅读模式

QQ图片20211214125504.png

◎译  名 水形物语/忘形水(港)/水之形/水底情深(台)/水形奇缘/水无常形/水的形状
◎片  名 The Shape of Water
◎年  代 2017
◎产  地 美国,加拿大
◎类  别 剧情 / 爱情 / 奇幻
◎语  言 英语,美国手语,俄语,法语
◎上映日期 2017-08-31(威尼斯电影节) / 2017-12-01(美国) / 2018-03-16(中国大陆)
◎IMDb评分 7.3/10 from 363770 users
◎IMDb链接 https://www.imdb.com/title/tt5580390/
◎豆瓣评分 7.2/10 from 377305 users
◎豆瓣链接 https://movie.douban.com/subject/26752852/
◎片  长 123分钟
◎导  演 吉尔莫·德尔·托罗 Guillermo del Toro
◎编  剧 吉尔莫·德尔·托罗 Guillermo del Toro / 瓦内莎·泰勒 Vanessa Taylor
◎主  演 莎莉·霍金斯 Sally Hawkins
      道格·琼斯 Doug Jones
      迈克尔·珊农 Michael Shannon
      理查德·詹金斯 Richard Jenkins
      奥克塔维亚·斯宾瑟 Octavia Spencer
      迈克尔·斯图巴 Michael Stuhlbarg
      大卫·休莱特 David Hewlett
      尼克·瑟西 Nick Searcy
      斯图尔特·阿诺特 Stewart Arnott
      尼格尔·本内特 Nigel Bennett
      劳伦·李·史密斯 Lauren Lee Smith
      马丁·罗奇 Martin Roach
      阿莱格拉·富尔顿 Allegra Fulton
      约翰·卡普洛斯 John Kapelos
      摩根·凯利 Morgan Kelly
      马文·凯伊 Marvin Kaye
      德鲁·维尔戈维尔 Dru Viergever
      凯伦·格莱夫 Karen Glave
      丹·莱特 Dan Lett
      辛迪·戴 Cyndy Day
      吉尔莫·德尔·托罗 Guillermo del Toro
      布兰登·麦克奈特 Brandon McKnight

◎标  签 爱情 | 奇幻 | 美国 | 浪漫 | 魔幻 | 科幻 | 人性 | 剧情

◎简  介

  故事发生在1963年,时值冷战期间,哑女艾丽莎(莎莉·霍金斯 Sally Hawkins 饰)在政府实验室里工作,是那里的一名清洁女工。年幼时,一场大病夺走了艾丽莎的声音,之后一直至今,她都在沉默之中过着形单影只的生活,全部的朋友就只有画家老头(理查德·詹金斯 Richard Jenkins 饰)和同事塞尔达(奥克塔维亚·斯宾瑟 Octavia Spencer 饰)。

  一天,实验室里拉响了高度戒备的警报,一个神秘的装满了水的罐子被送了进来,艾丽莎震惊的发现,罐子里关着一个半人半鱼的怪异生物。在理查德(迈克尔·珊农 Michael Shannon 饰)的带领下,科学家团队想要在这怪物身上提炼出能够制造生物武器的物质,可是在艾丽莎眼中,它不过是一个和自己一样的孤独的生命体。随着时间的推移,艾尔莎和怪物之间竟然产生了感情。

◎获奖情况

  第90届奥斯卡金像奖 ?(2018)
  最佳影片 J·迈尔斯·戴尔?/?吉尔莫·德尔·托罗
  最佳导演 吉尔莫·德尔·托罗
  最佳女主角(提名) 莎莉·霍金斯
  最佳男配角(提名) 理查德·詹金斯
  最佳女配角(提名) 奥克塔维亚·斯宾瑟
  最佳原创剧本(提名) 瓦内莎·泰勒?/?吉尔莫·德尔·托罗
  最佳摄影(提名) 达恩·劳斯特森
  最佳剪辑(提名) 西德尼·沃尔因斯基
  最佳混音(提名) 克里斯蒂安·T·库克?/?葛伦·加尔?/?布拉德·佐恩
  最佳音效剪辑(提名) 内森·罗比塔耶?/?纳尔逊·费雷拉
  最佳艺术指导 保罗·D·奥斯特伯里?/?谢恩·维奥?/?杰弗里·A·梅尔文
  最佳服装设计(提名) 路易斯·塞凯拉
  最佳原创配乐 亚历山大·德斯普拉

  第74届威尼斯电影节 ?(2017)
  主竞赛单元金狮奖 吉尔莫·德尔·托罗

  第75届金球奖 ?(2018)
  电影类最佳剧情片(提名)
  电影类最佳导演 吉尔莫·德尔·托罗
  电影类剧情片最佳女主角(提名) 莎莉·霍金斯
  电影类最佳男配角(提名) 理查德·詹金斯
  电影类最佳女配角(提名) 奥克塔维亚·斯宾瑟
  电影类最佳编剧(提名) 吉尔莫·德尔·托罗
  电影类最佳原创配乐 亚历山大·德斯普拉

  第71届英国电影学院奖 ?(2018)
  电影奖最佳影片(提名)
  电影奖最佳导演 吉尔莫·德尔·托罗
  电影奖最佳女主角(提名) 莎莉·霍金斯
  电影奖最佳女配角(提名) 奥克塔维亚·斯宾瑟
  电影奖最佳原创剧本(提名) 瓦内莎·泰勒?/?吉尔莫·德尔·托罗
  电影奖最佳摄影(提名) 达恩·劳斯特森
  电影奖最佳剪辑(提名)
  电影奖最佳服装设计(提名)
  电影奖最佳艺术指导
  电影奖最佳特殊视觉效果(提名)
  电影奖最佳原创音乐 亚历山大·德斯普拉
  电影奖最佳音效(提名)

  第42届日本电影学院奖 ?(2019)
  最佳外语片(提名)

  第61届日本电影蓝丝带奖 ?(2019)
  年度十佳海外影片

  第70届美国导演工会奖 ?(2018)
  最佳电影导演 吉尔莫·德尔·托罗

  第24届美国演员工会奖 ?(2018)
  电影奖最佳女主角(提名) 莎莉·霍金斯
  电影奖最佳男配角(提名) 理查德·詹金斯

  第70届美国编剧工会奖 ?(2018)
  电影奖最佳原创剧本(提名) 瓦内莎·泰勒?/?吉尔莫·德尔·托罗

  第29届美国制片人工会奖 ?(2018)
  最佳电影制片人奖

  第32届美国摄影协会奖 ?(2018)
  电影长片最佳摄影(提名) 达恩·劳斯特森

  第68届美国剪辑工会奖 ?(2018)
  剧情片最佳剪辑(提名) 西德尼·沃尔因斯基

  第22届美国艺术指导工会奖 ?(2018)
  电影奖最佳历史电影艺术指导

  第20届美国服装设计工会奖 ?(2018)
  年代电影最佳服装设计 路易斯·塞凯拉

  第54届美国声音效果协会奖 ?(2018)
  真人电影最佳音效(提名)

  第23届美国评论家选择电影奖 ?(2018)
  最佳影片
  最佳导演 吉尔莫·德尔·托罗
  最佳女主角(提名) 莎莉·霍金斯
  最佳男配角(提名) 理查德·詹金斯
  最佳女配角(提名) 奥克塔维亚·斯宾瑟
  最佳科幻/恐怖片(提名)
  最佳原创剧本(提名) 吉尔莫·德尔·托罗
  最佳摄影(提名) 达恩·劳斯特森
  最佳剪辑(提名)
  最佳配乐
  最佳美术指导
  最佳服装设计(提名)
  最佳发型化妆(提名)
  最佳视觉效果(提名)

  第18届美国电影学会奖 ?(2017)
  年度佳片

  第22届金卫星奖 ?(2018)
  电影部门最佳剧情片(提名)
  电影部门最佳导演(提名) 吉尔莫·德尔·托罗
  电影部门剧情片最佳女主角 莎莉·霍金斯
  电影部门最佳男配角(提名) 迈克尔·珊农
  电影部门最佳原创剧本(提名) 瓦内莎·泰勒?/?吉尔莫·德尔·托罗
  电影部门最佳原创配乐(提名) 亚历山大·德斯普拉
  电影部门最佳摄影(提名) 达恩·劳斯特森
  电影部门最佳视觉效果(提名)
  电影部门最佳剪辑(提名) 西德尼·沃尔因斯基
  电影部门最佳美术指导

  第21届好莱坞电影奖 ?(2017)
  年度剪辑 西德尼·沃尔因斯基

  第52届美国国家影评人协会奖 ?(2018)
  最佳女主角 莎莉·霍金斯
  最佳男配角(提名) 迈克尔·斯图巴

  第38届波士顿影评人协会奖 ?(2017)
  最佳女主角 莎莉·霍金斯

  第43届洛杉矶影评人协会奖 ?(2017)
  最佳导演 吉尔莫·德尔·托罗
  最佳女主角 莎莉·霍金斯
  最佳摄影 达恩·劳斯特森

  第30届芝加哥影评人协会奖 ?(2017)
  最佳影片(提名)
  最佳导演(提名) 吉尔莫·德尔·托罗
  最佳女主角(提名) 莎莉·霍金斯
  最佳原创剧本(提名) 瓦内莎·泰勒?/?吉尔莫·德尔·托罗
  最佳摄影(提名) 达恩·劳斯特森
  最佳原创配乐(提名) 亚历山大·德斯普拉
  最佳艺术指导(提名)

  第21届美国在线影评人协会奖 ?(2017)
  最佳影片(提名)
  最佳导演(提名) 吉尔莫·德尔·托罗
  最佳女主角 莎莉·霍金斯
  最佳男配角(提名) 理查德·詹金斯
  最佳原创剧本(提名) 瓦内莎·泰勒?/?吉尔莫·德尔·托罗
  最佳剪辑(提名) 西德尼·沃尔因斯基
  最佳摄影(提名) 达恩·劳斯特森
  最佳群戏(提名)

  第5届豆瓣电影年度榜单 ?(2018)
  评分最高的爱情片(提名)

  第4届豆瓣电影年度榜单 ?(2017)
  2017-2018北美颁奖季热门佳片(提名)

DISC INFO:

Disc Title:     The.Shape.of.Water.2017.2160p.BluRay.HEVC.DTS-HD.MA.5.1-COASTER
Disc Size:      61,536,361,031 bytes
Protection:     AACS2
BD-Java:        Yes
Extras:         Ultra HD
BDInfo:         0.5.8.7 (compatible layout created by DVDFab 10.0.8.4)

PLAYLIST REPORT:

Name:                   00700.MPLS  
Length:                 2:03:19.433 (h:m:s.ms)
Size:                   60,165,709,824 bytes
Total Bitrate:          65.05 Mbps

VIDEO:

Codec                   Bitrate             Description     
-----                   -------             -----------     
MPEG-H HEVC Video       51849 kbps          2160p / 23.976 fps / 16:9 / Main 10 Profile 5.1 High / 4:2:0 / 10 bits / HDR / BT.2020 /

AUDIO:

Codec                           Language        Bitrate         Description     
-----                           --------        -------         -----------     
DTS-HD Master Audio             English         3831 kbps       5.1 / 48 kHz / 3831 kbps / 24-bit (DTS Core: 5.1 / 48 kHz / 1509 kbps / 24-bit)
Dolby Digital Audio             English         448 kbps        5.1 / 48 kHz / 448 kbps
Dolby Digital Audio             Spanish         448 kbps        5.1 / 48 kHz / 448 kbps
DTS Audio                       French          768 kbps        5.1 / 48 kHz / 768 kbps / 24-bit
DTS Audio                       Spanish         768 kbps        5.1 / 48 kHz / 768 kbps / 24-bit
DTS Audio                       German          768 kbps        5.1 / 48 kHz / 768 kbps / 24-bit
DTS Audio                       Italian         768 kbps        5.1 / 48 kHz / 768 kbps / 24-bit
Dolby Digital Audio             Czech           448 kbps        5.1 / 48 kHz / 448 kbps
Dolby Digital Audio             Polish          448 kbps        5.1 / 48 kHz / 448 kbps
DTS Audio                       Japanese        768 kbps        5.1 / 48 kHz / 768 kbps / 24-bit

SUBTITLES:

Codec                           Language        Bitrate         Description     
-----                           --------        -------         -----------     
Presentation Graphics           English         1.071 kbps                     
Presentation Graphics           English         21.683 kbps                     
Presentation Graphics           Spanish         15.539 kbps                     
Presentation Graphics           Spanish         14.52 kbps                     
Presentation Graphics           Danish          25.257 kbps                     
Presentation Graphics           Dutch           22.383 kbps                     
Presentation Graphics           Finnish         24.521 kbps                     
Presentation Graphics           German          16.005 kbps                     
Presentation Graphics           Italian         15.024 kbps                     
Presentation Graphics           Norwegian       26.065 kbps                     
Presentation Graphics           Swedish         24.954 kbps                     
Presentation Graphics           中文         20.428 kbps                     
Presentation Graphics           Czech           25.231 kbps                     
Presentation Graphics           中文         20.388 kbps                     
Presentation Graphics           Polish          20.391 kbps                     
Presentation Graphics           Japanese        16.459 kbps                     
Presentation Graphics           Japanese        2.344 kbps                     
Presentation Graphics           French          13.356 kbps                     
Presentation Graphics           Spanish         1.448 kbps                     
Presentation Graphics           French          1.53 kbps                       
Presentation Graphics           Spanish         1.446 kbps                     
Presentation Graphics           German          1.557 kbps                     
Presentation Graphics           Italian         1.348 kbps  

俄版基本信息
MediaInfo
General
Complete name                            : The.Shape.of.Water.2017.2160p.UHD.BDRemux.DTS-HD.MA.5.1.P8.HYBRID.DoVi-DVT.mkv
Format                                   : Matroska
Format version                           : Version 4
File size                                : 52.4 GiB
Duration                                 : 2 h 3 min
Overall bit rate mode                    : Variable
Overall bit rate                         : 60.8 Mb/s
Movie name                               : The Shape of Water (2017)
Encoded date                             : UTC 2021-12-12 10:58:46
Writing application                      : mkvmerge v62.0.0 ('Apollo') 64-bit
Writing library                          : libebml v1.4.2 + libmatroska v1.6.4

Video
ID                                       : 1
Format                                   : HEVC
Format/Info                              : High Efficiency Video Coding
Format profile                           : Main 10@L5.1@High
HDR format                               : Dolby Vision, Version 1.0, dvhe.08.06, BL+RPU, HDR10 compatible / SMPTE ST 2086, HDR10 compatible
Codec ID                                 : V_MPEGH/ISO/HEVC
Duration                                 : 2 h 3 min
Bit rate                                 : 51.9 Mb/s
Width                                    : 3 840 pixels
Height                                   : 2 160 pixels
Display aspect ratio                     : 16:9
Frame rate mode                          : Constant
Frame rate                               : 23.976 (24000/1001) FPS
Color space                              : YUV
Chroma subsampling                       : 4:2:0 (Type 2)
Bit depth                                : 10 bits
Bits/(Pixel*Frame)                       : 0.261
Stream size                              : 44.7 GiB (85%)
Title                                    : The Shape of Water (2017) - Release by Dolby Vision Torrents
Language                                 : English
Default                                  : Yes
Forced                                   : No
Color range                              : Limited
Color primaries                          : BT.2020
Transfer characteristics                 : PQ
Matrix coefficients                      : BT.2020 non-constant
Mastering display color primaries        : Display P3
Mastering display luminance              : min: 0.0050 cd/m2, max: 1000 cd/m2

Audio #1
ID                                       : 2
Format                                   : DTS
Format/Info                              : Digital Theater Systems
Codec ID                                 : A_DTS
Duration                                 : 2 h 3 min
Bit rate mode                            : Constant
Bit rate                                 : 768 kb/s
Channel(s)                               : 6 channels
Channel layout                           : C L R Ls Rs LFE
Sampling rate                            : 48.0 kHz
Frame rate                               : 93.750 FPS (512 SPF)
Bit depth                                : 24 bits
Compression mode                         : Lossy
Stream size                              : 677 MiB (1%)
Title                                    : Dub, Blu-Ray
Language                                 : Russian
Default                                  : Yes
Forced                                   : No

Audio #2
ID                                       : 3
Format                                   : DTS XLL
Format/Info                              : Digital Theater Systems
Commercial name                          : DTS-HD Master Audio
Codec ID                                 : A_DTS
Duration                                 : 2 h 3 min
Bit rate mode                            : Variable
Bit rate                                 : 3 875 kb/s
Channel(s)                               : 6 channels
Channel layout                           : C L R Ls Rs LFE
Sampling rate                            : 48.0 kHz
Frame rate                               : 93.750 FPS (512 SPF)
Bit depth                                : 24 bits
Compression mode                         : Lossless
Stream size                              : 3.34 GiB (6%)
Title                                    : AVO, С.Визгунов
Language                                 : Russian
Default                                  : No
Forced                                   : No

Audio #3
ID                                       : 4
Format                                   : AC-3
Format/Info                              : Audio Coding 3
Commercial name                          : Dolby Digital
Codec ID                                 : A_AC3
Duration                                 : 2 h 3 min
Bit rate mode                            : Constant
Bit rate                                 : 448 kb/s
Channel(s)                               : 6 channels
Channel layout                           : L R C LFE Ls Rs
Sampling rate                            : 48.0 kHz
Frame rate                               : 31.250 FPS (1536 SPF)
Compression mode                         : Lossy
Stream size                              : 395 MiB (1%)
Title                                    : Dub
Language                                 : Ukrainian
Service kind                             : Complete Main
Default                                  : No
Forced                                   : No

Audio #4
ID                                       : 5
Format                                   : DTS XLL
Format/Info                              : Digital Theater Systems
Commercial name                          : DTS-HD Master Audio
Codec ID                                 : A_DTS
Duration                                 : 2 h 3 min
Bit rate mode                            : Variable
Bit rate                                 : 3 831 kb/s
Channel(s)                               : 6 channels
Channel layout                           : C L R Ls Rs LFE
Sampling rate                            : 48.0 kHz
Frame rate                               : 93.750 FPS (512 SPF)
Bit depth                                : 24 bits
Compression mode                         : Lossless
Stream size                              : 3.30 GiB (6%)
Title                                    : DTS-HD MA 5.1
Language                                 : English
Default                                  : No
Forced                                   : No

Text #1
ID                                       : 6
Format                                   : UTF-8
Codec ID                                 : S_TEXT/UTF8
Codec ID/Info                            : UTF-8 Plain Text
Duration                                 : 1 h 48 min
Bit rate                                 : 1 b/s
Count of elements                        : 60
Stream size                              : 1.29 KiB (0%)
Title                                    : Forced
Language                                 : Russian
Default                                  : Yes
Forced                                   : No

Text #2
ID                                       : 7
Format                                   : UTF-8
Codec ID                                 : S_TEXT/UTF8
Codec ID/Info                            : UTF-8 Plain Text
Duration                                 : 1 h 56 min
Bit rate                                 : 72 b/s
Count of elements                        : 1263
Stream size                              : 61.7 KiB (0%)
Title                                    : Full
Language                                 : Russian
Default                                  : No
Forced                                   : No

Text #3
ID                                       : 8
Format                                   : UTF-8
Codec ID                                 : S_TEXT/UTF8
Codec ID/Info                            : UTF-8 Plain Text
Duration                                 : 1 h 56 min
Bit rate                                 : 67 b/s
Count of elements                        : 1012
Stream size                              : 57.8 KiB (0%)
Title                                    : Full, FOCS
Language                                 : Russian
Default                                  : No
Forced                                   : No

Text #4
ID                                       : 9
Format                                   : UTF-8
Codec ID                                 : S_TEXT/UTF8
Codec ID/Info                            : UTF-8 Plain Text
Duration                                 : 1 h 47 min
Bit rate                                 : 5 b/s
Count of elements                        : 167
Stream size                              : 4.49 KiB (0%)
Title                                    : Forced
Language                                 : Ukrainian
Default                                  : No
Forced                                   : No

Text #5
ID                                       : 10
Format                                   : UTF-8
Codec ID                                 : S_TEXT/UTF8
Codec ID/Info                            : UTF-8 Plain Text
Duration                                 : 2 h 1 min
Bit rate                                 : 71 b/s
Count of elements                        : 1398
Stream size                              : 64.1 KiB (0%)
Title                                    : Full
Language                                 : Ukrainian
Default                                  : No
Forced                                   : No

Text #6
ID                                       : 11
Format                                   : UTF-8
Codec ID                                 : S_TEXT/UTF8
Codec ID/Info                            : UTF-8 Plain Text
Duration                                 : 2 h 1 min
Bit rate                                 : 48 b/s
Count of elements                        : 1555
Stream size                              : 43.0 KiB (0%)
Title                                    : Full
Language                                 : English
Default                                  : No
Forced                                   : No

Text #7
ID                                       : 12
Format                                   : UTF-8
Codec ID                                 : S_TEXT/UTF8
Codec ID/Info                            : UTF-8 Plain Text
Duration                                 : 2 h 2 min
Bit rate                                 : 56 b/s
Count of elements                        : 1928
Stream size                              : 51.3 KiB (0%)
Title                                    : SDH
Language                                 : English
Default                                  : No
Forced                                   : No

Menu
00:00:00.000                             : :Chapter 1
00:06:24.467                             : :Chapter 2
00:12:54.774                             : :Chapter 3
00:18:32.987                             : :Chapter 4
00:23:45.591                             : :Chapter 5
00:29:39.653                             : :Chapter 6
00:35:29.836                             : :Chapter 7
00:39:30.535                             : :Chapter 8
00:42:42.435                             : :Chapter 9
00:48:34.036                             : :Chapter 10
00:52:26.935                             : :Chapter 11
00:57:30.197                             : :Chapter 12
01:01:52.542                             : :Chapter 13
01:07:35.551                             : :Chapter 14
01:12:13.496                             : :Chapter 15
01:17:50.791                             : :Chapter 16
01:21:17.122                             : :Chapter 17
01:26:05.911                             : :Chapter 18
01:32:48.480                             : :Chapter 19
01:37:18.750                             : :Chapter 20
01:43:24.115                             : :Chapter 21
01:46:06.610                             : :Chapter 22
01:50:31.667                             : :Chapter 23
01:58:34.858                             : :Chapter 24



4K蓝光[原盘+REMUX]资源,新种资源,推荐使用qBittorrent、uTorrent等下载软件,有条件的推荐115更好的下载软件!

水形物语(57.31GB)The.Shape.of.Water.2017.2160p.BluRay.HEVC.DTS-HD.MA.5.1-COASTER-【4K-蓝光原盘
游客,如果您要查看本帖隐藏内容请回复

水形物语(52.92GB)The.Shape.of.Water.2017.2160p.BluRay.REMUX.HEVC.DTS-HD.MA.5.1-FGT-【4K-蓝光REMUX】
游客,如果您要查看本帖隐藏内容请回复

水形物语(30.87GB)The.Shape.of.Water.2017.2160p.BluRay.x264.8bit.SDR.DTS-HD.MA.5.1-SWTYBLZ
游客,如果您要查看本帖隐藏内容请回复

水形物语(29.60GB)The.Shape.of.Water.2017.2160p.BluRay.x265.10bit.SDR.DTS-HD.MA.5.1-SWTYBLZ
游客,如果您要查看本帖隐藏内容请回复

水形物语(17.44GB)The.Shape.of.Water.2017.2160p.UHD.BluRay.x265.10bit.HDR.DTS-HD.MA.5.1-IAMABLE
游客,如果您要查看本帖隐藏内容请回复


4K蓝光REMUX俄版资源
水形物语(52.38GB)The.Shape.of.Water.2017.2160p.UHD.BDRemux.DTS-HD.MA.5.1.P8.HYBRID.DoVi-DVT-【4K-蓝光REMUX】
****此区域为收费内容****    需支付 30 金币后可查看立即购买





1心,爱心.gif

上一篇:三块广告牌 (内嵌中字) (2017) 4K蓝光[原盘+REMUX]版本下载[补档]
下一篇:007:无暇赴死 / No Time to Die (2021) 4K蓝光[原盘+REMUX]版本下载
回复

使用道具 举报

0

主题

1575

帖子

4305

积分

4K家园VIP

Rank: 9Rank: 9Rank: 9

积分
4305
发表于 2021-12-14 12:57:02 来自手机 | 显示全部楼层
4K家园资源最近貌似越来越多了
回复 支持 反对

使用道具 举报

0

主题

240

帖子

1473

积分

注册会员

Rank: 2

积分
1473
发表于 2021-12-14 13:51:56 | 显示全部楼层
谢谢楼主分享
回复 支持 反对

使用道具 举报

0

主题

7280

帖子

1万

积分

4K家园VIP

Rank: 9Rank: 9Rank: 9

积分
16651
发表于 2021-12-14 14:47:11 | 显示全部楼层
太好啦&萬分感謝版主的無私發佈分享%
回复 支持 反对

使用道具 举报

0

主题

29

帖子

1909

积分

注册会员

Rank: 2

积分
1909
发表于 2021-12-14 16:11:27 | 显示全部楼层

谢谢楼主分享
回复 支持 反对

使用道具 举报

0

主题

29

帖子

1909

积分

注册会员

Rank: 2

积分
1909
发表于 2021-12-14 16:11:51 | 显示全部楼层

谢谢楼主分享
回复 支持 反对

使用道具 举报

0

主题

1

帖子

9

积分

新手上路

Rank: 1

积分
9
发表于 2021-12-14 18:46:56 | 显示全部楼层
感謝你
回复

使用道具 举报

0

主题

353

帖子

3709

积分

4K家园VIP

Rank: 9Rank: 9Rank: 9

积分
3709
QQ
发表于 2021-12-14 23:56:23 | 显示全部楼层
谢谢楼主分享,辛苦了!
回复 支持 反对

使用道具 举报

0

主题

7280

帖子

1万

积分

4K家园VIP

Rank: 9Rank: 9Rank: 9

积分
16651
发表于 2021-12-15 00:48:58 | 显示全部楼层
太好啦&萬分感謝版主的無私發佈分享%
回复 支持 反对

使用道具 举报

2

主题

1535

帖子

4177

积分

4K家园VIP

Rank: 9Rank: 9Rank: 9

积分
4177
发表于 2021-12-15 03:10:13 | 显示全部楼层
多发些资源啊
回复 支持 反对

使用道具 举报

您需要登录后才可以回帖 登录 | 立即注册

本版积分规则

精彩图文
Archiver|手机版|TAG|Sitemap|新帖|专题|联系我们:邮箱: 4kjia.com@gmail.com   

4k家园   ©2019