[4K电影] 智能大反攻 (俄版)/The Mitchells vs. The Machines(2021) 4K高清版下载

[复制链接]

1339

主题

1444

帖子

1万

积分

超级版主

Rank: 8Rank: 8

积分
11232
 楼主| 发表于 2021-12-15 11:17:53 | 显示全部楼层 |阅读模式
QQ图片20211215103350_副本.png

◎译  名 智能大反攻/Connected/一家人大战机械人(港)/一家断线救地球(港)/无线之战(台)/米切尔一家大战机器人/米家大战机器人(台)/米歇尔一家大战机器人/米歇尔大战机器人
◎片  名 The Mitchells vs. The Machines
◎年  代 2021
◎产  地 美国,加拿大,中国香港
◎类  别 喜剧 / 科幻 / 动画 / 冒险
◎语  言 英语
◎上映日期 2021-04-30(美国网络)
◎IMDb评分  7.7/10 from 80571 users
◎IMDb链接  https://www.imdb.com/title/tt7979580/

◎豆瓣评分 7.4/10 from 12235 users
◎豆瓣链接 https://movie.douban.com/subject/30229667/
◎片  长 113分钟
◎导  演 迈克尔·里安达 Michael Rianda / 杰夫·罗韦 Jeff Rowe
◎编  剧 迈克尔·里安达 Michael Rianda / 杰夫·罗韦 Jeff Rowe
◎主  演 奥利维娅·科尔曼 Olivia Colman
      埃里克·安德烈 Eric André
      玛娅·鲁道夫 Maya Rudolph
      查琳·易 Charlyne Yi
      丹尼·麦克布莱德 Danny McBride
      艾比·雅各布森 Abbi Jacobson
      弗莱德·阿米森 Fred Armisen
      克莉丝汀·泰根 Chrissy Teigen
      玛德琳·麦格劳 Madeleine McGraw
      亚历克斯·赫什 Alex Hirsch
      柯南·奥布莱恩 Conan O'Brien
      萨西尔·扎玛塔 Sasheer Zamata
      约翰·传奇 John Legend
      贝克·班尼特 Beck Bennett
      杰·费罗尔 Jay Pharoah
      布雷克·格里芬 Blake Griffin
      迈克尔·里安达 Michael Rianda
      丝凯拉·格雷 Skylar Gray
      威尔·阿莱格拉 Will Allegra


◎简  介

  《智能大反攻》是由美国索尼哥伦比亚影片公司和索尼动画联合出品的原创喜剧冒险动画电影。该片由荣获奥斯卡最佳动画长片大奖的《蜘蛛侠:平行宇宙》金牌制作团队重磅打造,可谓2020年最值得期待的动画巨制。迈克尔·里安达(《怪诞小镇》)担任导演、菲尔·罗德和克里斯托弗·米勒(《蜘蛛侠:平行宇宙》《乐高大电影》)担任制片人。特立独行又充满创意的凯蒂·米切尔考上了她梦寐以求的电影学院。她本打算坐飞机前往学校,但热爱大自然的父亲瑞克却决定开车载全家人一起送凯蒂上大学,在她离开之前增进家人感情。除了凯蒂和瑞克,米切尔一家还包括乐天派的母亲琳达和性格古怪的弟弟艾伦,以及胖乎乎的可爱八哥犬蒙奇,他们展开了一段刺激的家庭公路自驾游。但意外发生了,智能科技突如其来地向人类发起反攻,彻底打乱了米切尔一家的计划。人们最常用的电子设备,从手机到家用电器,乃至一系列最新的私人机器人,决定在全球范围内向人类进攻。在两台友好的故障机器人帮助下,米切尔一家齐心协力互相帮助,共同面对这次非同寻常的挑战!

◎获奖情况

  第87届纽约影评人协会奖 ?(2021)
  最佳动画片

General
Complete name                  : H:\4K@电影\Митчеллы против машин.2021.WEB-DL.2160p.HDR.mkv
Format                         : Matroska
Format version                 : Version 4
File size                      : 14.0 GiB
Duration                       : 1 h 49 min
Overall bit rate               : 18.3 Mb/s
Encoded date                   : UTC 2021-12-14 19:06:27
Writing application            : mkvmerge v63.0.0 ('Everything') 64-bit
Writing library                : libebml v1.4.2 + libmatroska v1.6.4
IsTruncated                    : Yes
Attachments                    : poster.jpg

Video
ID                             : 1
Format                         : HEVC
Format/Info                    : High Efficiency Video Coding
Format profile                 : Main 10@L5@High
HDR format                     : SMPTE ST 2086, HDR10 compatible
Codec ID                       : V_MPEGH/ISO/HEVC
Duration                       : 1 h 49 min
Bit rate                       : 15.9 Mb/s
Width                          : 3 840 pixels
Height                         : 2 060 pixels
Display aspect ratio           : 1.85:1
Frame rate mode                : Constant
Frame rate                     : 23.976 (24000/1001) FPS
Color space                    : YUV
Chroma subsampling             : 4:2:0 (Type 2)
Bit depth                      : 10 bits
Bits/(Pixel*Frame)             : 0.084
Stream size                    : 12.2 GiB (87%)
Default                        : Yes
Forced                         : No
Color range                    : Limited
Color primaries                : BT.2020
Transfer characteristics       : PQ
Matrix coefficients            : BT.2020 non-constant
Mastering display color primar : BT.2020
Mastering display luminance    : min: 0.0050 cd/m2, max: 1000 cd/m2
Maximum Content Light Level    : 782 cd/m2
Maximum Frame-Average Light Le : 174 cd/m2

Audio #1
ID                             : 2
Format                         : E-AC-3
Format/Info                    : Enhanced AC-3
Commercial name                : Dolby Digital Plus
Codec ID                       : A_EAC3
Duration                       : 1 h 49 min
Bit rate mode                  : Constant
Bit rate                       : 640 kb/s
Channel(s)                     : 6 channels
Channel layout                 : L R C LFE Ls Rs
Sampling rate                  : 48.0 kHz
Frame rate                     : 31.250 FPS (1536 SPF)
Compression mode               : Lossy
Stream size                    : 502 MiB (4%)
Title                          : Dub, Пифагор
Language                       : Russian
Service kind                   : Complete Main
Default                        : Yes
Forced                         : No

Audio #2
ID                             : 3
Format                         : E-AC-3
Format/Info                    : Enhanced AC-3
Commercial name                : Dolby Digital Plus
Codec ID                       : A_EAC3
Duration                       : 1 h 49 min
Bit rate mode                  : Constant
Bit rate                       : 640 kb/s
Channel(s)                     : 6 channels
Channel layout                 : L R C LFE Ls Rs
Sampling rate                  : 48.0 kHz
Frame rate                     : 31.250 FPS (1536 SPF)
Compression mode               : Lossy
Stream size                    : 502 MiB (4%)
Title                          : Дубляж
Language                       : Ukrainian
Service kind                   : Complete Main
Default                        : No
Forced                         : No

Audio #3
ID                             : 4
Format                         : E-AC-3 JOC
Format/Info                    : Enhanced AC-3 with Joint Object Coding
Commercial name                : Dolby Digital Plus with Dolby Atmos
Codec ID                       : A_EAC3
Duration                       : 1 h 49 min
Bit rate mode                  : Constant
Bit rate                       : 768 kb/s
Channel(s)                     : 6 channels
Channel layout                 : L R C LFE Ls Rs
Sampling rate                  : 48.0 kHz
Frame rate                     : 31.250 FPS (1536 SPF)
Compression mode               : Lossy
Stream size                    : 603 MiB (4%)
Language                       : English
Service kind                   : Complete Main
Default                        : No
Forced                         : No
Complexity index               : 16
Number of dynamic objects      : 15
Bed channel count              : 1 channel
Bed channel configuration      : LFE

Text #1
ID                             : 5
Format                         : UTF-8
Codec ID                       : S_TEXT/UTF8
Codec ID/Info                  : UTF-8 Plain Text
Title                          : forced
Language                       : Russian
Default                        : Yes
Forced                         : No

Text #2
ID                             : 6
Format                         : UTF-8
Codec ID                       : S_TEXT/UTF8
Codec ID/Info                  : UTF-8 Plain Text
Title                          : full #1
Language                       : Russian
Default                        : No
Forced                         : No

Text #3
ID                             : 7
Format                         : UTF-8
Codec ID                       : S_TEXT/UTF8
Codec ID/Info                  : UTF-8 Plain Text
Title                          : full #2
Language                       : Russian
Default                        : No
Forced                         : No

Text #4
ID                             : 8
Format                         : UTF-8
Codec ID                       : S_TEXT/UTF8
Codec ID/Info                  : UTF-8 Plain Text
Title                          : forced
Language                       : Ukrainian
Default                        : No
Forced                         : No

Text #5
ID                             : 9
Format                         : UTF-8
Codec ID                       : S_TEXT/UTF8
Codec ID/Info                  : UTF-8 Plain Text
Title                          : full
Language                       : Ukrainian
Default                        : No
Forced                         : No

Text #6
ID                             : 10
Format                         : UTF-8
Codec ID                       : S_TEXT/UTF8
Codec ID/Info                  : UTF-8 Plain Text
Title                          : full
Language                       : English
Default                        : No
Forced                         : No

Text #7
ID                             : 11
Format                         : UTF-8
Codec ID                       : S_TEXT/UTF8
Codec ID/Info                  : UTF-8 Plain Text
Title                          : SDH
Language                       : English
Default                        : No
Forced                         : No

Menu
00:00:00.000                   : en:Chapter 01
00:06:15.041                   : en:Chapter 02
00:12:08.978                   : en:Chapter 03
00:19:26.207                   : en:Chapter 04
00:24:58.123                   : en:Chapter 05
00:31:34.352                   : en:Chapter 06
00:36:29.272                   : en:Chapter 07
00:46:33.084                   : en:Chapter 08
00:52:52.547                   : en:Chapter 09
00:59:48.004                   : en:Chapter 10
01:06:12.972                   : en:Chapter 11
01:13:19.941                   : en:Chapter 12
01:19:03.159                   : en:Chapter 13
01:24:47.545                   : en:Chapter 14
01:32:32.469                   : en:Chapter 15
01:35:25.892                   : en:Chapter 16


迅雷下载资源速度为零,资源敏感或被和谐时,推荐使用qBittorrent等无限速下载软件,有条件的推荐115更好的下载软件!

下载地址(俄版资源,不喜俄语请自行音轨转换)

****此区域为收费内容****    需支付 9 金币后可查看立即购买

****此区域为收费内容****    需支付 9 金币后可查看立即购买







上一篇:法兰西特派 / The French Dispatch (2021) 4K高清版下载
下一篇:马拉萨尼亚32号鬼宅(俄版)/ Malasana 32 (2020) 4K高清版下载
回复

使用道具 举报

5

主题

1461

帖子

4227

积分

4K家园VIP

Rank: 9Rank: 9Rank: 9

积分
4227
发表于 2021-12-15 11:18:00 来自手机 | 显示全部楼层
边撸边过
回复 支持 反对

使用道具 举报

0

主题

240

帖子

1473

积分

注册会员

Rank: 2

积分
1473
发表于 2021-12-15 12:32:02 | 显示全部楼层
谢谢楼主分享
回复 支持 反对

使用道具 举报

2

主题

1330

帖子

3856

积分

4K家园VIP

Rank: 9Rank: 9Rank: 9

积分
3856
发表于 2021-12-15 13:05:16 | 显示全部楼层
垃圾
回复 支持 反对

使用道具 举报

0

主题

7280

帖子

1万

积分

4K家园VIP

Rank: 9Rank: 9Rank: 9

积分
16651
发表于 2021-12-15 13:36:24 | 显示全部楼层
太好啦&萬分感謝版主的無私發佈分享%
回复 支持 反对

使用道具 举报

0

主题

1685

帖子

4659

积分

4K家园VIP

Rank: 9Rank: 9Rank: 9

积分
4659
发表于 2021-12-15 14:38:50 | 显示全部楼层
多谢楼主分享
回复 支持 反对

使用道具 举报

0

主题

36

帖子

177

积分

新手上路

Rank: 1

积分
177
发表于 2021-12-15 15:09:38 | 显示全部楼层

谢谢楼主分享
回复 支持 反对

使用道具 举报

2

主题

1311

帖子

3949

积分

4K家园VIP

Rank: 9Rank: 9Rank: 9

积分
3949
发表于 2021-12-15 17:13:47 | 显示全部楼层
4K家园资源不错,前排支持
回复 支持 反对

使用道具 举报

13

主题

1181

帖子

3515

积分

4K家园VIP

Rank: 9Rank: 9Rank: 9

积分
3515
发表于 2021-12-15 20:12:56 | 显示全部楼层
看帖要回,回帖才健康,在踩踩,楼主辛苦了!
回复 支持 反对

使用道具 举报

0

主题

3

帖子

61

积分

新手上路

Rank: 1

积分
61
发表于 2021-12-16 16:50:12 | 显示全部楼层
谢谢分享,下来看看!
回复 支持 反对

使用道具 举报

您需要登录后才可以回帖 登录 | 立即注册

本版积分规则

精彩图文
Archiver|手机版|TAG|Sitemap|新帖|专题|联系我们:邮箱: 4kjia.com@gmail.com   

4k家园   ©2019