[4Kjia独享4K资源] 马拉萨尼亚32号鬼宅(俄版)/ Malasana 32 (2020) 4K高清版下载

[复制链接]

1323

主题

1428

帖子

1万

积分

超级版主

Rank: 8Rank: 8

积分
11131
 楼主| 发表于 2021-12-16 10:44:15 | 显示全部楼层 |阅读模式
本帖最后由 最爱4K哟 于 2021-12-16 11:24 编辑

QQ图片20211216103142_副本.png

◎译  名 马拉萨尼亚32号鬼宅 / 凶屋32(港) / 32 Malasana Street
◎片  名 Malasa?a 32
◎年  代 2020
◎产  地 西班牙
◎类  别 恐怖
◎语  言 西班牙语
◎上映日期 2020-01-17(西班牙)
◎IMDb评分  5.5/10 from 3933 users
◎IMDb链接  https://www.imdb.com/title/tt10952782/
◎豆瓣评分 5.7/10 from 1651 users
◎豆瓣链接 https://movie.douban.com/subject/34825863/
◎片  长 104分钟
◎导  演 阿尔伯特·平托 Albert Pintó
◎编  剧 拉蒙·坎波斯 Ramón Campos / 盖马·R·内拉 Gema R. Neira
◎演  员 贝戈尼亚·瓦加斯 Bego?a Vargas
      比雅·塞古拉 Bea Segura
      塞尔希奥·卡斯特利亚诺斯 Sergio Castellanos
      哈维尔·博泰特 Javier Botet
      罗莎·阿尔瓦雷斯 Rosa álvarez
      何塞·路易斯·德马达里亚加 José Luis de Madariaga
      伊万·雷内多 Iván Renedo
      巴勃罗·巴斯克斯 Pablo Vázquez
      伊万·马科斯 Iván Marcos
      米格尔·拉米罗 Miguel Ramiro
      雨果·富尔特斯 Hugo Fuertes
      玛丽亚姆·托雷斯 Mariam Torres



◎简  介

  故事讲述70年代的马德里,马诺洛和坎德拉带着三个孩子和祖父费尔明定居在马拉萨尼亚的马德里附近。这一举动意味着他们抛弃过去以及在城镇中的生活。马德里是一个全面过渡的大城市,也是正在寻找的繁荣的好地方。但是,奥尔梅多一家人不知道的是,他们买的房子将成为他们最糟糕的噩梦。
General
Complete name                  : H:\4K@电影 4K@MV\Malasana.32.2020.2160p.WEB-DL.DDP.5.1-DVT.mkv
Format                         : Matroska
Format version                 : Version 4
File size                      : 12.4 GiB
Duration                       : 1 h 44 min
Overall bit rate               : 17.0 Mb/s
Movie name                     : Заклятье. Дом 32 / Malasaña 32 (2020) - Release by DVT
Encoded date                   : UTC 2021-12-01 19:24:12
Writing application            : mkvmerge v62.0.0 ('Apollo') 64-bit
Writing library                : libebml v1.4.2 + libmatroska v1.6.4
IsTruncated                    : Yes
Attachments                    : malasana.jpg

Video
ID                             : 1
Format                         : HEVC
Format/Info                    : High Efficiency Video Coding
Format profile                 : Main@L5.1@Main
Codec ID                       : V_MPEGH/ISO/HEVC
Duration                       : 1 h 44 min
Bit rate                       : 15.6 Mb/s
Width                          : 3 840 pixels
Height                         : 2 160 pixels
Display aspect ratio           : 16:9
Frame rate mode                : Constant
Frame rate                     : 23.976 (23976/1000) FPS
Color space                    : YUV
Chroma subsampling             : 4:2:0
Bit depth                      : 8 bits
Bits/(Pixel*Frame)             : 0.078
Stream size                    : 11.4 GiB (92%)
Title                          : Заклятье. Дом 32 / Malasaña 32 (2020)
Writing library                : x265 3.0_RC+11-72188bd2f034:[Linux][GCC 4.9.2][64 bit] 8bit+10bit+12bit
Encoding settings              : cpuid=1111039 / frame-threads=3 / wpp / no-pmode / no-pme / no-psnr / no-ssim / log-level=2 / input-csp=1 / input-res=3840x2160 / interlace=0 / total-frames=0 / level-idc=51 / high-tier=1 / uhd-bd=0 / ref=4 / no-allow-non-conformance / no-repeat-headers / annexb / no-aud / no-hrd / info / hash=0 / no-temporal-layers / no-open-gop / min-keyint=24 / keyint=48 / gop-lookahead=0 / bframes=3 / b-adapt=0 / no-b-pyramid / bframe-bias=0 / rc-lookahead=15 / lookahead-slices=8 / scenecut=0 / radl=0 / no-splice / no-intra-refresh / ctu=64 / min-cu-size=8 / no-rect / no-amp / max-tu-size=32 / tu-inter-depth=1 / tu-intra-depth=1 / limit-tu=0 / rdoq-level=0 / dynamic-rd=0.00 / no-ssim-rd / signhide / no-tskip / nr-intra=0 / nr-inter=0 / no-constrained-intra / strong-intra-smoothing / max-merge=2 / limit-refs=3 / no-limit-modes / me=1 / subme=2 / merange=57 / temporal-mvp / weightp / no-weightb / no-analyze-src-pics / deblock=0:0 / sao / no-sao-non-deblock / rd=2 / no-early-skip / rskip / fast-intra / no-tskip-fast / no-cu-lossless / no-b-intra / no-splitrd-skip / rdpenalty=0 / psy-rd=2.00 / psy-rdoq=0.00 / no-rd-refine / no-lossless / cbqpoffs=0 / crqpoffs=0 / rc=cbr / bitrate=16000 / qcomp=0.60 / qpstep=4 / stats-write=0 / stats-read=0 / vbv-maxrate=16000 / vbv-bufsize=32000 / vbv-init=0.9 / ipratio=1.40 / pbratio=1.30 / aq-mode=2 / aq-strength=1.00 / cutree / zone-count=0 / no-strict-cbr / qg-size=32 / no-rc-grain / qpmax=69 / qpmin=0 / no-const-vbv / sar=1 / overscan=0 / videoformat=5 / range=0 / colorprim=2 / transfer=2 / colormatrix=2 / chromaloc=0 / display-window=0 / max-cll=0,0 / min-luma=0 / max-luma=255 / log2-max-poc-lsb=8 / vui-timing-info / vui-hrd-info / slices=1 / no-opt-qp-pps / no-opt-ref-list-length-pps / no-multi-pass-opt-rps / scenecut-bias=0.05 / no-opt-cu-delta-qp / no-aq-motion / no-hdr / no-hdr-opt / no-dhdr10-opt / no-idr-recovery-sei / analysis-reuse-level=5 / scale-factor=0 / refine-intra=0 / refine-inter=0 / refine-mv=0 / refine-ctu-distortion=0 / no-limit-sao / ctu-info=0 / no-lowpass-dct / refine-analysis-type=0 / copy-pic=1 / max-ausize-factor=1.0 / no-dynamic-refine / no-single-sei / no-hevc-aq / qp-adaptation-range=1.00
Default                        : Yes
Forced                         : No

Audio #1
ID                             : 2
Format                         : AC-3
Format/Info                    : Audio Coding 3
Commercial name                : Dolby Digital
Codec ID                       : A_AC3
Duration                       : 1 h 44 min
Bit rate mode                  : Constant
Bit rate                       : 384 kb/s
Channel(s)                     : 6 channels
Channel layout                 : L R C LFE Ls Rs
Sampling rate                  : 48.0 kHz
Frame rate                     : 31.250 FPS (1536 SPF)
Compression mode               : Lossy
Stream size                    : 288 MiB (2%)
Title                          : Дубляж  - AC3 5.1
Language                       : Russian
Service kind                   : Complete Main
Default                        : Yes
Forced                         : No

Audio #2
ID                             : 3
Format                         : AC-3
Format/Info                    : Audio Coding 3
Commercial name                : Dolby Digital
Codec ID                       : A_AC3
Duration                       : 1 h 44 min
Bit rate mode                  : Constant
Bit rate                       : 448 kb/s
Channel(s)                     : 6 channels
Channel layout                 : L R C LFE Ls Rs
Sampling rate                  : 48.0 kHz
Frame rate                     : 31.250 FPS (1536 SPF)
Compression mode               : Lossy
Stream size                    : 336 MiB (3%)
Title                          : Дубляж  - AC3 5.1
Language                       : Ukrainian
Service kind                   : Complete Main
Default                        : No
Forced                         : No

Audio #3
ID                             : 4
Format                         : E-AC-3
Format/Info                    : Enhanced AC-3
Commercial name                : Dolby Digital Plus
Codec ID                       : A_EAC3
Duration                       : 1 h 44 min
Bit rate mode                  : Constant
Bit rate                       : 256 kb/s
Channel(s)                     : 6 channels
Channel layout                 : L R C LFE Ls Rs
Sampling rate                  : 48.0 kHz
Frame rate                     : 31.250 FPS (1536 SPF)
Compression mode               : Lossy
Stream size                    : 192 MiB (2%)
Title                          : Original - EAC3 5.1
Language                       : Spanish
Service kind                   : Complete Main
Default                        : No
Forced                         : No

Text #1
ID                             : 5
Format                         : UTF-8
Codec ID                       : S_TEXT/UTF8
Codec ID/Info                  : UTF-8 Plain Text
Title                          : Forced
Language                       : Russian
Default                        : Yes
Forced                         : No

Text #2
ID                             : 6
Format                         : UTF-8
Codec ID                       : S_TEXT/UTF8
Codec ID/Info                  : UTF-8 Plain Text
Title                          : Full
Language                       : English
Default                        : No
Forced                         : No

Menu
00:07:48.000                   : :CapĂ­tulo 1
00:12:24.000                   : :CapĂ­tulo 2
00:21:26.000                   : :CapĂ­tulo 3
00:28:36.000                   : :CapĂ­tulo 4
00:34:42.000                   : :CapĂ­tulo 5
00:39:14.000                   : :CapĂ­tulo 6
00:45:51.000                   : :CapĂ­tulo 7
00:52:19.000                   : :CapĂ­tulo 8
00:57:14.000                   : :CapĂ­tulo 9
01:03:17.000                   : :CapĂ­tulo 10
01:12:52.000                   : :CapĂ­tulo 12
01:18:13.000                   : :CapĂ­tulo 13
01:23:51.000                   : :CapĂ­tulo 14
01:30:22.000                   : :CapĂ­tulo 15
01:39:16.000                   : :CapĂ­tulo 16
01:41:36.000                   : :Creditos

迅雷下载资源速度为零,资源敏感或被和谐时,推荐使用qBittorrent等无限速下载软件,有条件的推荐115更好的下载软件!


下载地址(俄版资源)
****此区域为收费内容****    需支付 9 金币后可查看立即购买




.

上一篇:智能大反攻 (俄版)/The Mitchells vs. The Machines(2021) 4K高清版下载
下一篇:怪兽训练营 / Rumble (2021) 4K高清版下载
回复

使用道具 举报

2

主题

1330

帖子

3856

积分

4K家园VIP

Rank: 9Rank: 9Rank: 9

积分
3856
发表于 2021-12-16 10:44:19 | 显示全部楼层
秀起来~
回复 支持 反对

使用道具 举报

2

主题

1306

帖子

3772

积分

4K家园VIP

Rank: 9Rank: 9Rank: 9

积分
3772
发表于 2021-12-17 10:03:04 | 显示全部楼层
1v1飘过
回复 支持 反对

使用道具 举报

1

主题

1637

帖子

4527

积分

4K家园VIP

Rank: 9Rank: 9Rank: 9

积分
4527
发表于 2021-12-17 12:20:01 | 显示全部楼层
没明白
回复 支持 反对

使用道具 举报

50

主题

1468

帖子

4266

积分

4K家园VIP

Rank: 9Rank: 9Rank: 9

积分
4266
发表于 2021-12-18 18:56:38 | 显示全部楼层
LZ帖子不给力,勉强给回复下吧
回复 支持 反对

使用道具 举报

40

主题

1508

帖子

4314

积分

4K家园VIP

Rank: 9Rank: 9Rank: 9

积分
4314
发表于 2021-12-19 11:30:40 | 显示全部楼层
有空一起交流一下
回复 支持 反对

使用道具 举报

您需要登录后才可以回帖 登录 | 立即注册

本版积分规则

精彩图文
Archiver|手机版|TAG|Sitemap|新帖|专题|联系我们:邮箱: 4kjia.com@gmail.com   

4k家园   ©2019