[4K电影] 怪兽训练营 / Rumble (2021) 4K高清版下载

[复制链接]

1323

主题

1428

帖子

1万

积分

超级版主

Rank: 8Rank: 8

积分
11131
 楼主| 发表于 2021-12-16 11:17:56 | 显示全部楼层 |阅读模式
本帖最后由 最爱4K哟 于 2021-12-16 20:41 编辑

QQ图片20211216102928_副本.png

◎译  名 怪兽训练营
◎片  名 Rumble
◎年  代 2021
◎产  地 美国
◎类  别 喜剧 / 动画 / 家庭
◎语  言 英语
◎上映日期 2021-12-15(美国)
◎IMDb评分  6.2/10 from 202 users
◎IMDb链接  https://www.imdb.com/title/tt8337158
◎豆瓣评分 0/10 from 0 users
◎豆瓣链接 https://movie.douban.com/subject/34809114/
◎片  长 108分钟
◎导  演 哈米什·格里夫
◎编  剧 伊坦·柯亨 / 马特·利伯曼
◎主  演 本·施瓦茨
                   威尔·阿奈特
                   杰拉尔丁·维斯瓦纳坦
                   泰瑞·克鲁斯
                  托尼·丹扎
                  吉米·塔特罗
                  弗雷德·迈拉麦德
                  罗曼·雷恩斯
                  瑞贝卡·奎恩
                  迈克尔·巴佛
                  Stephen A. Smith



◎简  介

       电影在一个以驯服怪兽并以进行怪兽摔跤为乐趣的世界里,温妮试图跟随她父亲的脚步,把一个没有摔跤经验的怪兽变成一个摔跤选手的故事。
General
Complete name                  : H:\4K@电影\Rumble.2021.2160p.WEB-DL.DDP5.1.DV.H.265-EVO.mkv
Format                         : Matroska
Format version                 : Version 4
File size                      : 9.86 GiB
Duration                       : 1 h 34 min
Overall bit rate               : 14.9 Mb/s
Encoded date                   : UTC 2021-12-15 14:12:31
Writing application            : mkvmerge v63.0.0 ('Everything') 64-bit
Writing library                : libebml v1.4.2 + libmatroska v1.6.4

Video
ID                             : 1
Format                         : HEVC
Format/Info                    : High Efficiency Video Coding
Format profile                 : Main 10@L5@High
HDR format                     : Dolby Vision, Version 1.0, dvhe.05.06, BL+RPU
Codec ID                       : V_MPEGH/ISO/HEVC
Duration                       : 1 h 34 min
Bit rate                       : 14.7 Mb/s
Width                          : 3 840 pixels
Height                         : 2 160 pixels
Display aspect ratio           : 16:9
Frame rate mode                : Constant
Frame rate                     : 23.976 (24000/1001) FPS
Color space                    : YUV
Chroma subsampling             : 4:2:0 (Type 0)
Bit depth                      : 10 bits
Bits/(Pixel*Frame)             : 0.074
Stream size                    : 9.73 GiB (99%)
Default                        : Yes
Forced                         : No
Color range                    : Full

Audio
ID                             : 2
Format                         : E-AC-3
Format/Info                    : Enhanced AC-3
Commercial name                : Dolby Digital Plus
Codec ID                       : A_EAC3
Duration                       : 1 h 34 min
Bit rate mode                  : Constant
Bit rate                       : 192 kb/s
Channel(s)                     : 6 channels
Channel layout                 : L R C LFE Ls Rs
Sampling rate                  : 48.0 kHz
Frame rate                     : 31.250 FPS (1536 SPF)
Compression mode               : Lossy
Stream size                    : 130 MiB (1%)
Language                       : English
Service kind                   : Complete Main
Default                        : Yes
Forced                         : No

Text
ID                             : 3
Format                         : UTF-8
Codec ID                       : S_TEXT/UTF8
Codec ID/Info                  : UTF-8 Plain Text
Duration                       : 1 h 31 min
Bit rate                       : 81 b/s
Count of elements              : 1633
Stream size                    : 54.4 KiB (0%)
Title                          : SDH
Language                       : English
Default                        : No
Forced                         : No

迅雷下载资源速度为零,资源敏感或被和谐时,推荐使用qBittorrent等无限速下载软件,有条件的推荐115更好的下载软件!

下载地址

游客,如果您要查看本帖隐藏内容请回复

游客,如果您要查看本帖隐藏内容请回复

游客,如果您要查看本帖隐藏内容请回复

****此区域为收费内容****    需支付 9 金币后可查看立即购买
****此区域为收费内容****    需支付 9 金币后可查看立即购买







上一篇:马拉萨尼亚32号鬼宅(俄版)/ Malasana 32 (2020) 4K高清版下载
下一篇:鹿角 / Antlers (2021) 4K高清版下载
回复

使用道具 举报

1323

主题

1428

帖子

1万

积分

超级版主

Rank: 8Rank: 8

积分
11131
 楼主| 发表于 2021-12-16 11:21:42 | 显示全部楼层
Rumble.2021.2160p.WEB-DL.DDP5.1.DV.H.265-EVO.mkv_20211216_111807.237.jpg Rumble.2021.2160p.WEB-DL.DDP5.1.DV.H.265-EVO.mkv_20211216_111813.125.jpg Rumble.2021.2160p.WEB-DL.DDP5.1.DV.H.265-EVO.mkv_20211216_111845.749.jpg Rumble.2021.2160p.WEB-DL.DDP5.1.DV.H.265-EVO.mkv_20211216_111856.797.jpg Rumble.2021.2160p.WEB-DL.DDP5.1.DV.H.265-EVO.mkv_20211216_111903.685.jpg Rumble.2021.2160p.WEB-DL.DDP5.1.DV.H.265-EVO.mkv_20211216_111919.197.jpg
回复 支持 反对

使用道具 举报

1

主题

1565

帖子

4299

积分

4K家园VIP

Rank: 9Rank: 9Rank: 9

积分
4299
发表于 2021-12-16 11:18:01 | 显示全部楼层
报告!别开枪,我就是路过来看看的。。。
回复 支持 反对

使用道具 举报

0

主题

1

帖子

6

积分

新手上路

Rank: 1

积分
6
发表于 2021-12-16 11:38:04 | 显示全部楼层
超级想看耶~
回复 支持 反对

使用道具 举报

0

主题

7236

帖子

1万

积分

4K家园VIP

Rank: 9Rank: 9Rank: 9

积分
16568
发表于 2021-12-16 12:53:24 | 显示全部楼层
太好啦&萬分感謝版主的無私發佈分享%
回复 支持 反对

使用道具 举报

0

主题

1

帖子

12

积分

新手上路

Rank: 1

积分
12
发表于 2021-12-16 13:27:29 来自手机 | 显示全部楼层
加油加油
回复

使用道具 举报

0

主题

1

帖子

6

积分

新手上路

Rank: 1

积分
6
发表于 2021-12-16 17:49:03 | 显示全部楼层
感谢分享
回复

使用道具 举报

0

主题

8

帖子

60

积分

新手上路

Rank: 1

积分
60
发表于 2021-12-16 21:20:54 | 显示全部楼层
谢谢大佬
分享
回复 支持 反对

使用道具 举报

0

主题

2

帖子

9

积分

新手上路

Rank: 1

积分
9
发表于 2021-12-17 01:04:43 | 显示全部楼层

超级想看耶~
回复 支持 反对

使用道具 举报

0

主题

1

帖子

6

积分

新手上路

Rank: 1

积分
6
发表于 2021-12-17 18:27:29 | 显示全部楼层
看看 可以么
回复 支持 反对

使用道具 举报

您需要登录后才可以回帖 登录 | 立即注册

本版积分规则

精彩图文
Archiver|手机版|TAG|Sitemap|新帖|专题|联系我们:邮箱: 4kjia.com@gmail.com   

4k家园   ©2019