[4K电影] 鹿角 / Antlers (2021) 4K高清版下载

[复制链接]

1323

主题

1428

帖子

1万

积分

超级版主

Rank: 8Rank: 8

积分
11131
 楼主| 发表于 2021-12-17 11:12:49 | 显示全部楼层 |阅读模式
本帖最后由 最爱4K哟 于 2021-12-17 19:24 编辑

QQ图片20211217111026_副本.png
◎译  名 鹿角/血魔兽(港)/鹿魔
◎片  名 Antlers
◎年  代 2021
◎产  地 美国,墨西哥,加拿大
◎类  别 悬疑 / 恐怖
◎语  言 英语
◎上映日期 2021-10-29(美国)
◎IMDb评分  6.1/10 from 8919 users
◎IMDb链接  https://www.imdb.com/title/tt7740510/
◎豆瓣评分 5.4/10 from 1423 users
◎豆瓣链接 https://movie.douban.com/subject/27605563/
◎片  长 99分钟
◎导  演 斯科特·库珀 Scott Cooper
◎编  剧 斯科特·库珀 Scott Cooper / 尼克·安托斯卡 Nick Antosca
◎主  演 凯丽·拉塞尔 Keri Russell
      杰西·普莱蒙 Jesse Plemons
      杰里米·T·托马斯 Jeremy T. Thomas
      格雷厄姆·格林 Graham Greene
      斯科特·黑兹 Scott Haze
      罗利·科奇瑞恩 Rory Cochrane
      埃米·马迪根 Amy Madigan
      索耶·琼斯 Sawyer Jones
      科迪·戴维斯 Cody Davis
      杰西·唐斯 Jesse Downs
      阿洛·哈伊杜 Arlo Hajdu
      多里安·金 Dorian Kingi
      肯·克拉默 Ken Kramer
      丹德里·泰勒 Dendrie Taylor
      格利尼斯·戴维斯 Glynis Davies
      迈克尔·艾克朗德 Michael Eklund
      杰伊·布拉泽奥 Jay Brazeau
      丽莎·克罗马蒂 Lisa Cromarty



◎简  介

  俄勒冈州一名小镇的老师跟她的镇上警长哥哥发现了一件惊世骇俗的案件,他们察觉一位年轻的小学生行为举止十分异常,孤僻的个性以及诡异的谈话,驱使这对兄妹介入小学生的家庭调查背后隐藏的秘密,没想到竟掀起一阵腥风血雨的风暴,而古老的传说不再是天方夜谭,恶魔的苏醒也将带来毁灭式的反扑……
General
Complete name                  : H:\4K@电影 \Antlers.2021.2160p.WEB-DL.DDP5.1.DV.H.265-TEPES.mp4
Format                         : MPEG-4
Format profile                 : Base Media / Version 2
Codec ID                       : mp42 (isom/mp42/dby1)
File size                      : 15.9 GiB
Duration                       : 1 h 39 min
Overall bit rate mode          : Variable
Overall bit rate               : 22.9 Mb/s
IsTruncated                    : Yes

Video
ID                             : 1
Format                         : HEVC
Format/Info                    : High Efficiency Video Coding
Format profile                 : Main 10@L5.2@Main
HDR format                     : Dolby Vision, Version 1.0, dvhe.05.06, BL+RPU
Codec ID                       : dvhe
Codec ID/Info                  : High Efficiency Video Coding with Dolby Vision
Duration                       : 1 h 39 min
Bit rate                       : 22.3 Mb/s
Width                          : 3 840 pixels
Height                         : 2 160 pixels
Display aspect ratio           : 16:9
Frame rate mode                : Constant
Frame rate                     : 23.976 (24000/1001) FPS
Color space                    : YUV
Chroma subsampling             : 4:2:0 (Type 0)
Bit depth                      : 10 bits
Bits/(Pixel*Frame)             : 0.112
Stream size                    : 15.5 GiB (97%)
Default                        : Yes
Alternate group                : 1
Color range                    : Full
Codec configuration box        : hvcC+dvcC

Audio
ID                             : 2
Format                         : E-AC-3
Format/Info                    : Enhanced AC-3
Commercial name                : Dolby Digital Plus
Codec ID                       : ec-3
Duration                       : 1 h 39 min
Source duration                : 1 h 39 min
Bit rate mode                  : Constant
Bit rate                       : 640 kb/s
Maximum bit rate               : 676 kb/s
Channel(s)                     : 6 channels
Channel layout                 : L R C LFE Ls Rs
Sampling rate                  : 48.0 kHz
Frame rate                     : 31.250 FPS (1536 SPF)
Compression mode               : Lossy
Stream size                    : 455 MiB (3%)
Source stream size             : 455 MiB (3%)
Language                       : English
Service kind                   : Complete Main
Default                        : Yes
Alternate group                : 1

Text #1
ID                             : 3
Format                         : Timed Text
Codec ID                       : tx3g
Duration                       : 1 h 33 min
Bit rate mode                  : Variable
Bit rate                       : 31 b/s
Stream size                    : 21.2 KiB (0%)
Title                          : UK
Language                       : English
Forced                         : No

Text #2
ID                             : 4
Format                         : Timed Text
Codec ID                       : tx3g
Duration                       : 1 h 33 min
Bit rate mode                  : Variable
Bit rate                       : 31 b/s
Stream size                    : 21.2 KiB (0%)
Language                       : English
Forced                         : No

Text #3
ID                             : 5
Format                         : Timed Text
Codec ID                       : tx3g
Duration                       : 1 h 33 min
Bit rate mode                  : Variable
Bit rate                       : 38 b/s
Stream size                    : 26.5 KiB (0%)
Title                          : SDH (UK)
Language                       : English
Forced                         : No

Text #4
ID                             : 6
Format                         : Timed Text
Codec ID                       : tx3g
Duration                       : 1 h 33 min
Bit rate mode                  : Variable
Bit rate                       : 38 b/s
Stream size                    : 26.5 KiB (0%)
Title                          : SDH
Language                       : English
Forced                         : No


迅雷下载资源速度为零,资源敏感或被和谐时,推荐使用qBittorrent等无限速下载软件,有条件的推荐115更好的下载软件!

下载地址

游客,如果您要查看本帖隐藏内容请回复

游客,如果您要查看本帖隐藏内容请回复

游客,如果您要查看本帖隐藏内容请回复









上一篇:怪兽训练营 / Rumble (2021) 4K高清版下载
下一篇:天鹅挽歌(内封简繁粤字) / Swan Song (2021) 4K高清版下载
回复

使用道具 举报

48

主题

1485

帖子

4325

积分

4K家园VIP

Rank: 9Rank: 9Rank: 9

积分
4325
发表于 2021-12-17 11:12:55 | 显示全部楼层
呵呵,低调,低调!
回复 支持 反对

使用道具 举报

0

主题

7236

帖子

1万

积分

4K家园VIP

Rank: 9Rank: 9Rank: 9

积分
16568
发表于 2021-12-17 13:21:37 | 显示全部楼层
太好啦&萬分感謝版主的無私發佈分享%
回复 支持 反对

使用道具 举报

0

主题

5

帖子

22

积分

新手上路

Rank: 1

积分
22
发表于 2021-12-17 15:29:59 | 显示全部楼层
看看行不行
回复 支持 反对

使用道具 举报

62

主题

1559

帖子

4513

积分

4K家园VIP

Rank: 9Rank: 9Rank: 9

积分
4513
发表于 2021-12-18 01:11:42 | 显示全部楼层
4K版的应该更清晰吧
回复 支持 反对

使用道具 举报

2

主题

1128

帖子

3402

积分

4K家园VIP

Rank: 9Rank: 9Rank: 9

积分
3402
发表于 2021-12-18 03:09:54 | 显示全部楼层
为了三千积分!
回复 支持 反对

使用道具 举报

2

主题

1362

帖子

3936

积分

4K家园VIP

Rank: 9Rank: 9Rank: 9

积分
3936
发表于 2021-12-19 12:32:47 | 显示全部楼层
没看懂
回复 支持 反对

使用道具 举报

6

主题

1409

帖子

4071

积分

4K家园VIP

Rank: 9Rank: 9Rank: 9

积分
4071
发表于 2021-12-19 16:06:48 | 显示全部楼层
鼎力支持!!
回复 支持 反对

使用道具 举报

您需要登录后才可以回帖 登录 | 立即注册

本版积分规则

精彩图文
Archiver|手机版|TAG|Sitemap|新帖|专题|联系我们:邮箱: 4kjia.com@gmail.com   

4k家园   ©2019