[4K电影] 母亲 / 机器人 Mother / Android (2021) 4K高清版下载

[复制链接]

1323

主题

1428

帖子

1万

积分

超级版主

Rank: 8Rank: 8

积分
11131
 楼主| 发表于 2021-12-17 19:35:33 | 显示全部楼层 |阅读模式
本帖最后由 最爱4K哟 于 2022-1-8 09:51 编辑

QQ图片20211217192923_副本.png

◎译  名 母亲/机器人
◎片  名 Mother/Android
◎年  代 2021
◎产  地 美国
◎类  别 剧情 / 科幻 / 惊悚
◎语  言 英语
◎上映日期 2021-12-17(美国网络)
◎IMDb评分  5.2/10 from 32 users
◎IMDb链接  https://www.imdb.com/title/tt13029044/
◎豆瓣评分 0/10 from 0 users
◎豆瓣链接 https://movie.douban.com/subject/35200282/
◎导  演 马特森·汤姆林 Mattson Tomlin
◎编  剧 马特森·汤姆林 Mattson Tomlin
◎主  演 科洛·莫瑞兹 Chlo? Grace Moretz
      史蒂文·罗伯特森 Steven Robertson
      劳尔·卡斯提洛 Raúl Castillo
      阿尔吉·史密斯 Algee Smith
      欧文·伯克 Owen Burke
      琪拉·皮查多 Kiara Pichardo
      利亚姆·麦克尼尔 Liam McNeill
      塔玛拉·希基 Tamara Hickey
      何塞·冈斯·阿尔维斯 Jose Guns Alves
      戴维·普里多摩尔 David Pridemore
      利兹·恩格 Liz Eng
      阿德里安·M·蒙波因特 Adrian M. Mompoint
      阿多布勒·艾比阿玛 Adobuere Ebiama


◎简  介

  设定在不久的将来,乔治娅和男友山姆的国家陷入了一场意料之外的人工智能战争,他们开始了极端凶险的逃亡之旅。距离他们第一个孩子出生还有几天的时间,他们必须穿过无人之境——一个机器人起义的据点,希望在生产前到达安全地带。

General
Complete name                  : H:\4K@电影\mother.android.2021.2160p.web.h265-naisu.mkv
Format                         : Matroska
Format version                 : Version 4
File size                      : 11.7 GiB
Duration                       : 1 h 50 min
Overall bit rate               : 15.2 Mb/s
Writing application            : mkvmerge v59.0.0 ('Shining Star') 64-bit
Writing library                : libebml v1.4.2 + libmatroska v1.6.4

Video
ID                             : 1
Format                         : HEVC
Format/Info                    : High Efficiency Video Coding
Format profile                 : Main 10@L5.1@Main
Codec ID                       : V_MPEGH/ISO/HEVC
Duration                       : 1 h 50 min
Bit rate                       : 14.6 Mb/s
Width                          : 3 840 pixels
Height                         : 2 160 pixels
Display aspect ratio           : 16:9
Frame rate mode                : Constant
Frame rate                     : 23.976 (24000/1001) FPS
Color space                    : YUV
Chroma subsampling             : 4:2:0
Bit depth                      : 10 bits
Bits/(Pixel*Frame)             : 0.074
Stream size                    : 11.2 GiB (96%)
Default                        : Yes
Forced                         : No

Audio
ID                             : 2
Format                         : E-AC-3
Format/Info                    : Enhanced AC-3
Commercial name                : Dolby Digital Plus
Codec ID                       : A_EAC3
Duration                       : 1 h 50 min
Bit rate mode                  : Constant
Bit rate                       : 256 kb/s
Channel(s)                     : 6 channels
Channel layout                 : L R C LFE Ls Rs
Sampling rate                  : 48.0 kHz
Frame rate                     : 31.250 FPS (1536 SPF)
Compression mode               : Lossy
Stream size                    : 201 MiB (2%)
Language                       : English
Service kind                   : Complete Main
Default                        : Yes
Forced                         : No

Text #1
ID                             : 3
Format                         : UTF-8
Codec ID                       : S_TEXT/UTF8
Codec ID/Info                  : UTF-8 Plain Text
Title                          : English
Language                       : English
Default                        : No
Forced                         : No

Text #2
ID                             : 4
Format                         : UTF-8
Codec ID                       : S_TEXT/UTF8
Codec ID/Info                  : UTF-8 Plain Text
Title                          : Spanish
Language                       : Spanish
Default                        : No
Forced                         : No

迅雷下载资源速度为零,资源敏感或被和谐时,推荐使用qBittorrent等无限速下载软件,有条件的推荐115更好的下载软件!

下载地址

游客,如果您要查看本帖隐藏内容请回复

游客,如果您要查看本帖隐藏内容请回复



.

上一篇:天鹅挽歌(内封简繁粤字) / Swan Song (2021) 4K高清版下载
下一篇:堡垒 / Fortress (2021) 4K高清版本下载
回复

使用道具 举报

1

主题

1375

帖子

3961

积分

4K家园VIP

Rank: 9Rank: 9Rank: 9

积分
3961
发表于 2021-12-17 19:35:38 | 显示全部楼层
求沙发
回复 支持 反对

使用道具 举报

0

主题

7236

帖子

1万

积分

4K家园VIP

Rank: 9Rank: 9Rank: 9

积分
16568
发表于 2021-12-17 20:00:36 | 显示全部楼层
太好啦&萬分感謝版主的無私發佈分享%
回复 支持 反对

使用道具 举报

1

主题

1278

帖子

3650

积分

4K家园VIP

Rank: 9Rank: 9Rank: 9

积分
3650
发表于 2021-12-17 20:58:40 | 显示全部楼层
前排,哇咔咔
回复 支持 反对

使用道具 举报

4

主题

1206

帖子

3648

积分

4K家园VIP

Rank: 9Rank: 9Rank: 9

积分
3648
发表于 2021-12-17 21:33:50 | 显示全部楼层
支持一下楼主发表的内容
回复 支持 反对

使用道具 举报

1

主题

1336

帖子

3796

积分

4K家园VIP

Rank: 9Rank: 9Rank: 9

积分
3796
发表于 2021-12-17 22:45:18 | 显示全部楼层
前排支持下
回复 支持 反对

使用道具 举报

3

主题

1302

帖子

3924

积分

4K家园VIP

Rank: 9Rank: 9Rank: 9

积分
3924
发表于 2021-12-18 03:36:09 | 显示全部楼层
呵呵,低调,低调!
回复 支持 反对

使用道具 举报

0

主题

7236

帖子

1万

积分

4K家园VIP

Rank: 9Rank: 9Rank: 9

积分
16568
发表于 2021-12-18 08:36:39 | 显示全部楼层
太好啦&萬分感謝版主的無私發佈分享%
回复 支持 反对

使用道具 举报

0

主题

1

帖子

6

积分

新手上路

Rank: 1

积分
6
发表于 2021-12-18 10:32:49 | 显示全部楼层
看电影
回复

使用道具 举报

0

主题

16

帖子

65

积分

4K家园VIP

Rank: 9Rank: 9Rank: 9

积分
65
发表于 2021-12-18 16:15:28 | 显示全部楼层

支持一下楼主,顶起来
回复 支持 反对

使用道具 举报

您需要登录后才可以回帖 登录 | 立即注册

本版积分规则

精彩图文
Archiver|手机版|TAG|Sitemap|新帖|专题|联系我们:邮箱: 4kjia.com@gmail.com   

4k家园   ©2019