[4K电影] 堡垒 / Fortress (2021) 4K高清版本下载

[复制链接]

1323

主题

1428

帖子

1万

积分

超级版主

Rank: 8Rank: 8

积分
11131
 楼主| 发表于 2021-12-17 20:08:25 | 显示全部楼层 |阅读模式

QQ图片20211217200510_副本.png

◎译  名 堡垒 / 堡垒危机
◎片  名 Fortress
◎年  代 2021
◎产  地 美国
◎类  别 动作 / 犯罪
◎语  言 英语
◎上映日期 2021-12-17(美国)
◎IMDb评分  3.5/10 from 29 users
◎IMDb链接  https://www.imdb.com/title/tt14577300/
◎豆瓣评分 0/10 from 0 users
◎豆瓣链接 https://movie.douban.com/subject/35472518/
◎主  演 布鲁斯·威利斯 Bruce Willis
      查德·迈克尔·墨瑞 Chad Michael Murray
      杰西·麦特卡尔菲 Jesse Metcalfe
      莎侬·多赫提 Shannen Doherty
      娜塔莉·伯恩 Natalie Burn
      西恩·凯南 Sean Kanan
      西蒙·菲利普斯 Simon Phillips
      瑟达吕斯·布兰 Ser'Darius Blain



◎简  介

  一群一心复仇的罪犯迫使一名退休军官和他的儿子拯救了这一天。

General
Complete name                  : E:\4K@电影\Fortress.2021.2160p.WEB-DL.DD5.1.HEVC-EVO.mkv
Format                         : Matroska
Format version                 : Version 4
File size                      : 8.45 GiB
Duration                       : 1 h 38 min
Overall bit rate               : 12.2 Mb/s
Encoded date                   : UTC 2021-12-17 05:58:07
Writing application            : mkvmerge v45.0.0 ('Heaven in Pennies') 64-bit
Writing library                : libebml v1.3.10 + libmatroska v1.5.2
IsTruncated                    : Yes

Video
ID                             : 1
Format                         : HEVC
Format/Info                    : High Efficiency Video Coding
Format profile                 : Main 10@L5@High
Codec ID                       : V_MPEGH/ISO/HEVC
Duration                       : 1 h 38 min
Bit rate                       : 11.6 Mb/s
Width                          : 3 832 pixels
Height                         : 1 600 pixels
Display aspect ratio           : 2.40:1
Frame rate mode                : Constant
Frame rate                     : 23.976 (24000/1001) FPS
Color space                    : YUV
Chroma subsampling             : 4:2:0
Bit depth                      : 10 bits
Bits/(Pixel*Frame)             : 0.079
Stream size                    : 8.02 GiB (95%)
Default                        : Yes
Forced                         : No
Color range                    : Limited
Color primaries                : BT.709
Transfer characteristics       : BT.709
Matrix coefficients            : BT.709

Audio
ID                             : 2
Format                         : AC-3
Format/Info                    : Audio Coding 3
Commercial name                : Dolby Digital
Codec ID                       : A_AC3
Duration                       : 1 h 38 min
Bit rate mode                  : Constant
Bit rate                       : 384 kb/s
Channel(s)                     : 6 channels
Channel layout                 : L R C LFE Ls Rs
Sampling rate                  : 48.0 kHz
Frame rate                     : 31.250 FPS (1536 SPF)
Compression mode               : Lossy
Stream size                    : 271 MiB (3%)
Title                          : English
Language                       : English
Service kind                   : Complete Main
Default                        : No
Forced                         : No

迅雷下载资源速度为零或资源敏感被和谐时,推荐使用qBittorrent等下载软件,有条件的推荐115更好的下载软件!

下载地址

****此区域为收费内容****    需支付 9 金币后可查看立即购买






上一篇:母亲 / 机器人 Mother / Android (2021) 4K高清版下载
下一篇:新手 / The Novice (2020) 4K高清版本下载
回复

使用道具 举报

1

主题

1381

帖子

3959

积分

4K家园VIP

Rank: 9Rank: 9Rank: 9

积分
3959
发表于 2021-12-17 20:08:31 来自手机 | 显示全部楼层
占坑编辑ing
回复 支持 反对

使用道具 举报

48

主题

1499

帖子

4303

积分

4K家园VIP

Rank: 9Rank: 9Rank: 9

积分
4303
发表于 2021-12-18 04:14:48 来自手机 | 显示全部楼层
在撸一遍。。。
回复 支持 反对

使用道具 举报

2

主题

1413

帖子

4075

积分

4K家园VIP

Rank: 9Rank: 9Rank: 9

积分
4075
发表于 2021-12-18 06:24:00 | 显示全部楼层
围观 围观 沙发在哪里!!!
回复 支持 反对

使用道具 举报

0

主题

7237

帖子

1万

积分

4K家园VIP

Rank: 9Rank: 9Rank: 9

积分
16569
发表于 2021-12-18 08:36:58 | 显示全部楼层
太好啦&萬分感謝版主的無私發佈分享%
回复 支持 反对

使用道具 举报

0

主题

1277

帖子

3853

积分

4K家园VIP

Rank: 9Rank: 9Rank: 9

积分
3853
发表于 2021-12-18 12:43:22 | 显示全部楼层
我只是看看啊,不说话
回复 支持 反对

使用道具 举报

0

主题

2

帖子

9

积分

新手上路

Rank: 1

积分
9
发表于 2021-12-18 14:05:29 | 显示全部楼层
谢谢楼主分享!我觉得来4K家园是对了!
回复 支持 反对

使用道具 举报

0

主题

3

帖子

12

积分

新手上路

Rank: 1

积分
12
发表于 2021-12-18 18:51:27 | 显示全部楼层
支持一下楼主发表的内容
回复 支持 反对

使用道具 举报

0

主题

2

帖子

9

积分

新手上路

Rank: 1

积分
9
发表于 2021-12-18 19:38:34 | 显示全部楼层
支持一下楼主发表的内容
回复 支持 反对

使用道具 举报

54

主题

1522

帖子

4340

积分

4K家园VIP

Rank: 9Rank: 9Rank: 9

积分
4340
发表于 2021-12-19 01:38:27 来自手机 | 显示全部楼层
回个帖子,下班咯~
回复 支持 反对

使用道具 举报

您需要登录后才可以回帖 登录 | 立即注册

本版积分规则

精彩图文
Archiver|手机版|TAG|Sitemap|新帖|专题|联系我们:邮箱: 4kjia.com@gmail.com   

4k家园   ©2019