[4K电影] 新手 / The Novice (2020) 4K高清版本下载

[复制链接]

1323

主题

1428

帖子

1万

积分

超级版主

Rank: 8Rank: 8

积分
11131
 楼主| 发表于 2021-12-18 10:54:02 | 显示全部楼层 |阅读模式

QQ图片20211218105141_副本.png

◎译  名 新手
◎片  名 The Novice
◎年  代 2020
◎产  地 美国
◎类  别 惊悚
◎语  言 英语
◎上映日期 2021-06-13(翠贝卡电影节)
◎IMDb评分  7.1/10 from 280 users
◎IMDb链接  https://www.imdb.com/title/tt11131464/
◎豆瓣评分 0/10 from 0 users
◎豆瓣链接 https://movie.douban.com/subject/34981336/
◎片  长 94分钟
◎导  演 劳伦·哈达威 Lauren Hadaway
◎编  剧 劳伦·哈达威 Lauren Hadaway
◎主  演 伊莎贝拉·弗尔曼 Isabelle Fuhrman
      凯特·德拉蒙德 Kate Drummond
      杰妮·罗斯 Jeni Ross
      艾米·福赛思 Amy Forsyth



◎简  介

  艾历克斯·道尔是一个追求极致的大一新生,会为了考出更高分反复参加考试。在加入了学校的赛艇部之后,她不惜任何代价都要打败队友、进入专业队代表学校参加比赛的念头越发强烈,但与此同时,包括教练、女友在内的人担心着她的身体和精神状况。求胜心切的艾历克斯能成功得到自己想要的一切吗?

Video
ID : 1
Format : HEVC
Format/Info : High Efficiency Video Coding
Format profile : Main 10@L5@High
Codec ID : V_MPEGH/ISO/HEVC
Duration : 1 h 36 min
Bit rate : 12.0 Mb/s
Width : 3 832 pixels
Height : 1 602 pixels
Display aspect ratio : 2.40:1
Frame rate mode : Constant
Frame rate : 23.976 FPS
Color space : YUV
Chroma subsampling : 4:2:0
Bit depth : 10 bits
Bits/(Pixel*Frame) : 0.082
Stream size : 8.14 GiB (97%)
Default : Yes
Forced : No
Color range : Limited
Color primaries : BT.709
Transfer characteristics : BT.709
Matrix coefficients : BT.709

Audio
ID : 2
Format : AC-3
Format/Info : Audio Coding 3
Commercial name : Dolby Digital
Codec ID : A_AC3
Duration : 1 h 36 min
Bit rate mode : Constant
Bit rate : 384 kb/s
Channel(s) : 6 channels
Channel layout : L R C LFE Ls Rs
Sampling rate : 48.0 kHz
Frame rate : 31.250 FPS (1536 SPF)
Compression mode : Lossy
Stream size : 266 MiB (3%)
Title : English
Language : English
Service kind : Complete Main
Default : No
Forced : No

Text
ID : 3
Format : UTF-8
Codec ID : S_TEXT/UTF8
Codec ID/Info : UTF-8 Plain Text
Duration : 1 h 27 min
Bit rate : 55 b/s
Count of elements : 1192
Stream size : 35.7 KiB (0%)
Language : English
Default : Yes
Forced : No


迅雷下载资源速度为零或资源敏感被和谐时,推荐使用qBittorrent等下载软件,有条件的推荐115更好的下载软件!

下载地址

游客,如果您要查看本帖隐藏内容请回复







上一篇:堡垒 / Fortress (2021) 4K高清版本下载
下一篇:触不到的恋人 / The Lake House (2006) 4K高清版本下载
回复

使用道具 举报

2

主题

1285

帖子

3687

积分

4K家园VIP

Rank: 9Rank: 9Rank: 9

积分
3687
发表于 2021-12-18 10:54:10 来自手机 | 显示全部楼层
围观 围观 沙发在哪里!!!
回复 支持 反对

使用道具 举报

0

主题

237

帖子

1455

积分

注册会员

Rank: 2

积分
1455
发表于 2021-12-18 12:57:19 | 显示全部楼层
谢谢主楼主分享
回复 支持 反对

使用道具 举报

0

主题

7237

帖子

1万

积分

4K家园VIP

Rank: 9Rank: 9Rank: 9

积分
16569
发表于 2021-12-18 13:03:20 | 显示全部楼层
太好啦&萬分感謝版主的無私發佈分享%
回复 支持 反对

使用道具 举报

0

主题

1300

帖子

3926

积分

4K家园VIP

Rank: 9Rank: 9Rank: 9

积分
3926
发表于 2021-12-19 05:43:13 | 显示全部楼层
额.....这个可以有
回复 支持 反对

使用道具 举报

0

主题

11

帖子

152

积分

新手上路

Rank: 1

积分
152
发表于 2021-12-19 12:25:09 | 显示全部楼层
感谢分享!
回复

使用道具 举报

50

主题

1418

帖子

4064

积分

4K家园VIP

Rank: 9Rank: 9Rank: 9

积分
4064
发表于 2021-12-19 15:38:53 | 显示全部楼层
好帖必须得顶起
回复 支持 反对

使用道具 举报

37

主题

1498

帖子

4272

积分

4K家园VIP

Rank: 9Rank: 9Rank: 9

积分
4272
发表于 2021-12-19 17:43:10 | 显示全部楼层
还有没有别的资源,多分享些
回复 支持 反对

使用道具 举报

0

主题

1

帖子

10

积分

新手上路

Rank: 1

积分
10
发表于 2021-12-19 19:26:38 | 显示全部楼层
谢谢楼主分享
回复 支持 反对

使用道具 举报

1

主题

1637

帖子

4527

积分

4K家园VIP

Rank: 9Rank: 9Rank: 9

积分
4527
发表于 2021-12-20 04:38:52 | 显示全部楼层
LZ敢整点更有创意的不?兄弟们等着围观捏~
回复 支持 反对

使用道具 举报

您需要登录后才可以回帖 登录 | 立即注册

本版积分规则

精彩图文
Archiver|手机版|TAG|Sitemap|新帖|专题|联系我们:邮箱: 4kjia.com@gmail.com   

4k家园   ©2019