猎魔人(内嵌简繁中字)(2021) /第二季全8集/4K高清版本下载

[复制链接]

66

主题

79

帖子

763

积分

版主

Rank: 7Rank: 7Rank: 7

积分
763
 楼主| 发表于 2021-12-19 16:23:32 | 显示全部楼层 |阅读模式
p2669284514_副本.png

◎译  名 猎魔人 第二季/猎魔士(港/台)/狩魔猎人/巫师
◎片  名 The Witcher Season 2
◎年  代 2021
◎产  地 美国/波兰
◎类  别 剧情/动作/奇幻/冒险
◎语  言 英语
◎上映日期 2021-12-17(美国)
◎IMDb评分  8.2/10 from 371572 users
◎IMDb链接  https://www.imdb.com/title/tt5180504/
◎豆瓣评分 0/10 from 0 users
◎豆瓣链接 https://douban.com/subject/34888567/
◎集  数 8
◎片  长 60分钟
◎导  演 史蒂芬·瑟吉克 Stephen Surjik / 爱德华·巴瑟杰特 Edward Bazalgette / 莎拉·奥格曼 Sarah O'Gorman / 格塔·帕特尔 Geeta Patel / 路易丝·胡珀 Louise Hooper
◎编  剧 安杰·萨普科夫斯基 Andrzej Sapkowski / 劳伦·施密特 Lauren Schmidt
◎主  演 亨利·卡维尔 Henry Cavill
       弗蕾娅·艾伦 Freya Allan
       安亚·查洛特拉 Anya Chalotra
       克里斯托弗·海维尤 Kristofer Hivju
       亚森·阿图 Yasen Atour
       保罗·布林 Paul Bullion
       金·波德尼亚 Kim Bodnia
       巴兹尔·伊登贝茨 Basil Eidenbenz
       凯西·克莱尔 Cassie Clare
       利兹·凯尔 Liz Carr
       西蒙·卡洛 Simon Callow
       格拉汉姆·麦克泰维什 Graham McTavish
       阿卓艾·安多 Adjoa Andoh
       凯文·道尔 Kevin Doyle
       克里斯·弗尔顿 Chris Fulton
       拉斯·米克尔森 Lars Mikkelsen
       玛安娜·本灵 MyAnna Buring
       特里卡·威尔逊-瑞德 Therica Wilson-Read
       埃蒙·法伦 Eamon Farren
       卡梅尔·拉尼亚多 Carmel Laniado
       安娜·谢弗 Anna Shaffer
       马赫什·扎杜 Mahesh Jadu
       乔伊·巴泰 Joey Batey
       罗伊斯·皮尔逊 Royce Pierreson
       艾莎·法比恩·罗斯 Aisha Fabienne Ross
       威尔逊·拉德茹-普杰尔特 Wilson Radjou-Pujalte
       Agnes Born Agnes Born
       米米·迪韦尼 Mimi Ndiweni
       汤姆·坎顿 Tom Canton
       Mecia Simson Mecia Simson
       凯恩·扎贾斯 Kaine Zajaz
       Tim Samuels Tim Samuels
       若塔·卡斯特尔诺 Jota Castellano
       Joseph Payne Joseph Payne
       阿尼雅·马森 Ania Marson
       艾德·伯奇 Ed Birch
       安·弗班克 Ann Firbank
       Niamh McCormack Niamh McCormack
       山姆·哈兹尔丁 Sam Hazeldine
       丽贝卡·汉森 Rebecca Hanssen
       爱德华·罗 Edward Rowe
        James Baxter



◎简  介


  利维亚的杰洛特确信叶妮芙已在索登之役中丧生,他带着希瑞菈公主来到了据他所知最安全的地方,即他的童年故乡凯尔·莫罕。当这片大陆的国王、精灵、人类和恶魔在城墙外争夺统治权的时候,他必须保护这个女孩免受更危险的伤害:她体内的神秘力量。

General
Complete name                  : J:\4K@美剧\The.Witcher.S02E01.a.Grain.of.Truth.2160p.NF.WEB-DL.DDP5.1.Atmos.DV.MP4.x265-DVSUX.mp4
Format                         : MPEG-4
Format profile                 : Base Media / Version 2
Codec ID                       : mp42 (isom/mp42/dby1)
File size                      : 7.13 GiB
Duration                       : 1 h 3 min
Overall bit rate mode          : Variable
Overall bit rate               : 16.2 Mb/s
Encoded date                   : UTC 2021-12-17 09:30:58
Tagged date                    : UTC 2021-12-17 09:30:58

Video
ID                             : 1
Format                         : HEVC
Format/Info                    : High Efficiency Video Coding
Format profile                 : Main 10@L5@Main
HDR format                     : Dolby Vision, Version 1.0, dvhe.05.06, BL+RPU
Codec ID                       : dvhe
Codec ID/Info                  : High Efficiency Video Coding with Dolby Vision
Duration                       : 1 h 3 min
Bit rate                       : 15.4 Mb/s
Width                          : 3 840 pixels
Height                         : 2 160 pixels
Display aspect ratio           : 16:9
Frame rate mode                : Constant
Frame rate                     : 24.000 FPS
Color space                    : YUV
Chroma subsampling             : 4:2:0
Bit depth                      : 10 bits
Bits/(Pixel*Frame)             : 0.077
Stream size                    : 6.79 GiB (95%)
Default                        : Yes
Alternate group                : 1
Encoded date                   : UTC 2021-12-17 09:30:26
Tagged date                    : UTC 2021-12-17 09:31:07
Color range                    : Full
Codec configuration box        : hvcC+dvcC

Audio
ID                             : 2
Format                         : E-AC-3 JOC
Format/Info                    : Enhanced AC-3 with Joint Object Coding
Commercial name                : Dolby Digital Plus with Dolby Atmos
Codec ID                       : ec-3
Duration                       : 1 h 3 min
Bit rate mode                  : Constant
Bit rate                       : 768 kb/s
Maximum bit rate               : 811 kb/s
Channel(s)                     : 6 channels
Channel layout                 : L R C LFE Ls Rs
Sampling rate                  : 48.0 kHz
Frame rate                     : 31.250 FPS (1536 SPF)
Compression mode               : Lossy
Stream size                    : 347 MiB (5%)
Title                          : English
Language                       : English
Service kind                   : Complete Main
Default                        : Yes
Alternate group                : 1
Tagged date                    : UTC 2021-12-17 09:31:07
Complexity index               : Not present / 16
Number of dynamic objects      : 15
Bed channel count              : 1 channel
Bed channel configuration      : LFE

Text #1
ID                             : 3
Format                         : Timed Text
Codec ID                       : tx3g
Duration                       : 58 min 56 s
Bit rate mode                  : Variable
Bit rate                       : 57 b/s
Stream size                    : 24.7 KiB (0%)
Title                          : English
Language                       : English
Forced                         : No
Encoded date                   : UTC 2021-12-17 09:31:04
Tagged date                    : UTC 2021-12-17 09:31:07

Text #2
ID                             : 4
Format                         : Timed Text
Codec ID                       : tx3g
Duration                       : 58 min 44 s
Bit rate mode                  : Variable
Bit rate                       : 47 b/s
Stream size                    : 20.1 KiB (0%)
Title                          : English
Language                       : English
Forced                         : No
Encoded date                   : UTC 2021-12-17 09:31:04
Tagged date                    : UTC 2021-12-17 09:31:07

Text #3
ID                             : 5
Format                         : Timed Text
Codec ID                       : tx3g
Duration                       : 1 h 1 min
Bit rate mode                  : Variable
Bit rate                       : 76 b/s
Stream size                    : 34.2 KiB (0%)
Title                          : Arabic
Language                       : Arabic
Forced                         : No
Encoded date                   : UTC 2021-12-17 09:31:04
Tagged date                    : UTC 2021-12-17 09:31:07

Text #4
ID                             : 6
Format                         : Timed Text
Codec ID                       : tx3g
Duration                       : 1 h 1 min
Bit rate mode                  : Variable
Bit rate                       : 48 b/s
Stream size                    : 21.4 KiB (0%)
Title                          : 中文-简体
Language                       : 中文
Forced                         : No
Encoded date                   : UTC 2021-12-17 09:31:04
Tagged date                    : UTC 2021-12-17 09:31:07

Text #5
ID                             : 7
Format                         : Timed Text
Codec ID                       : tx3g
Duration                       : 1 h 1 min
Bit rate mode                  : Variable
Bit rate                       : 46 b/s
Stream size                    : 20.8 KiB (0%)
Title                          : 中文-繁体
Language                       : 中文
Forced                         : No
Encoded date                   : UTC 2021-12-17 09:31:04
Tagged date                    : UTC 2021-12-17 09:31:07


Text #6
ID                             : 8
Format                         : Timed Text
Codec ID                       : tx3g
Duration                       : 1 h 1 min
Bit rate mode                  : Variable
Bit rate                       : 40 b/s
Stream size                    : 17.9 KiB (0%)
Title                          : Croatian
Language                       : Croatian
Forced                         : No
Encoded date                   : UTC 2021-12-17 09:31:04
Tagged date                    : UTC 2021-12-17 09:31:07

Text #7
ID                             : 9
Format                         : Timed Text
Codec ID                       : tx3g
Duration                       : 1 h 1 min
Bit rate mode                  : Variable
Bit rate                       : 44 b/s
Stream size                    : 19.7 KiB (0%)
Title                          : Czech
Language                       : Czech
Forced                         : No
Encoded date                   : UTC 2021-12-17 09:31:04
Tagged date                    : UTC 2021-12-17 09:31:07

Text #8
ID                             : 10
Format                         : Timed Text
Codec ID                       : tx3g
Duration                       : 1 h 1 min
Bit rate mode                  : Variable
Bit rate                       : 43 b/s
Stream size                    : 19.1 KiB (0%)
Title                          : Danish
Language                       : Danish
Forced                         : No
Encoded date                   : UTC 2021-12-17 09:31:04
Tagged date                    : UTC 2021-12-17 09:31:07

Text #9
ID                             : 11
Format                         : Timed Text
Codec ID                       : tx3g
Duration                       : 1 h 1 min
Bit rate mode                  : Variable
Bit rate                       : 41 b/s
Stream size                    : 18.3 KiB (0%)
Title                          : Dutch
Language                       : Dutch
Forced                         : No
Encoded date                   : UTC 2021-12-17 09:31:04
Tagged date                    : UTC 2021-12-17 09:31:07

Text #10
ID                             : 12
Format                         : Timed Text
Codec ID                       : tx3g
Duration                       : 1 h 1 min
Bit rate mode                  : Variable
Bit rate                       : 43 b/s
Stream size                    : 19.1 KiB (0%)
Title                          : Finnish
Language                       : Finnish
Forced                         : No
Encoded date                   : UTC 2021-12-17 09:31:04
Tagged date                    : UTC 2021-12-17 09:31:07

Text #11
ID                             : 13
Format                         : Timed Text
Codec ID                       : tx3g
Duration                       : 1 h 1 min
Bit rate mode                  : Variable
Bit rate                       : 45 b/s
Stream size                    : 20.3 KiB (0%)
Title                          : French
Language                       : French
Forced                         : No
Encoded date                   : UTC 2021-12-17 09:31:05
Tagged date                    : UTC 2021-12-17 09:31:07

Text #12
ID                             : 14
Format                         : Timed Text
Codec ID                       : tx3g
Duration                       : 1 h 1 min
Bit rate mode                  : Variable
Bit rate                       : 46 b/s
Stream size                    : 20.8 KiB (0%)
Title                          : German
Language                       : German
Forced                         : No
Encoded date                   : UTC 2021-12-17 09:31:05
Tagged date                    : UTC 2021-12-17 09:31:07

Text #13
ID                             : 15
Format                         : Timed Text
Codec ID                       : tx3g
Duration                       : 1 h 1 min
Bit rate mode                  : Variable
Bit rate                       : 77 b/s
Stream size                    : 34.4 KiB (0%)
Title                          : Greek
Language                       : Greek
Forced                         : No
Encoded date                   : UTC 2021-12-17 09:31:05
Tagged date                    : UTC 2021-12-17 09:31:07

Text #14
ID                             : 16
Format                         : Timed Text
Codec ID                       : tx3g
Duration                       : 1 h 1 min
Bit rate mode                  : Variable
Bit rate                       : 70 b/s
Stream size                    : 31.2 KiB (0%)
Title                          : Hebrew
Language                       : Hebrew
Forced                         : No
Encoded date                   : UTC 2021-12-17 09:31:06
Tagged date                    : UTC 2021-12-17 09:31:07

Text #15
ID                             : 17
Format                         : Timed Text
Codec ID                       : tx3g
Duration                       : 1 h 1 min
Bit rate mode                  : Variable
Bit rate                       : 43 b/s
Stream size                    : 19.3 KiB (0%)
Title                          : Hungarian
Language                       : Hungarian
Forced                         : No
Encoded date                   : UTC 2021-12-17 09:31:06
Tagged date                    : UTC 2021-12-17 09:31:07

Text #16
ID                             : 18
Format                         : Timed Text
Codec ID                       : tx3g
Duration                       : 1 h 1 min
Bit rate mode                  : Variable
Bit rate                       : 44 b/s
Stream size                    : 19.8 KiB (0%)
Title                          : Indonesian
Language                       : Indonesian
Forced                         : No
Encoded date                   : UTC 2021-12-17 09:31:06
Tagged date                    : UTC 2021-12-17 09:31:07

Text #17
ID                             : 19
Format                         : Timed Text
Codec ID                       : tx3g
Duration                       : 1 h 1 min
Bit rate mode                  : Variable
Bit rate                       : 43 b/s
Stream size                    : 19.3 KiB (0%)
Title                          : Italian
Language                       : Italian
Forced                         : No
Encoded date                   : UTC 2021-12-17 09:31:06
Tagged date                    : UTC 2021-12-17 09:31:07

Text #18
ID                             : 20
Format                         : Timed Text
Codec ID                       : tx3g
Duration                       : 1 h 1 min
Bit rate mode                  : Variable
Bit rate                       : 44 b/s
Stream size                    : 19.7 KiB (0%)
Title                          : Japanese
Language                       : Japanese
Forced                         : No
Encoded date                   : UTC 2021-12-17 09:31:06
Tagged date                    : UTC 2021-12-17 09:31:07

Text #19
ID                             : 21
Format                         : Timed Text
Codec ID                       : tx3g
Duration                       : 1 h 1 min
Bit rate mode                  : Variable
Bit rate                       : 53 b/s
Stream size                    : 23.7 KiB (0%)
Title                          : Korean
Language                       : Korean
Forced                         : No
Encoded date                   : UTC 2021-12-17 09:31:06
Tagged date                    : UTC 2021-12-17 09:31:07

Text #20
ID                             : 22
Format                         : Timed Text
Codec ID                       : tx3g
Duration                       : 1 h 1 min
Bit rate mode                  : Variable
Bit rate                       : 43 b/s
Stream size                    : 19.3 KiB (0%)
Title                          : Malay
Language                       : Malay
Forced                         : No
Encoded date                   : UTC 2021-12-17 09:31:06
Tagged date                    : UTC 2021-12-17 09:31:07

Text #21
ID                             : 23
Format                         : Timed Text
Codec ID                       : tx3g
Duration                       : 1 h 1 min
Bit rate mode                  : Variable
Bit rate                       : 41 b/s
Stream size                    : 18.3 KiB (0%)
Title                          : Norwegian
Language                       : Norwegian Bokmal
Forced                         : No
Encoded date                   : UTC 2021-12-17 09:31:06
Tagged date                    : UTC 2021-12-17 09:31:07

Text #22
ID                             : 24
Format                         : Timed Text
Codec ID                       : tx3g
Duration                       : 1 h 1 min
Bit rate mode                  : Variable
Bit rate                       : 44 b/s
Stream size                    : 19.6 KiB (0%)
Title                          : Polish
Language                       : Polish
Forced                         : No
Encoded date                   : UTC 2021-12-17 09:31:06
Tagged date                    : UTC 2021-12-17 09:31:07

Text #23
ID                             : 25
Format                         : Timed Text
Codec ID                       : tx3g
Duration                       : 1 h 1 min
Bit rate mode                  : Variable
Bit rate                       : 43 b/s
Stream size                    : 19.4 KiB (0%)
Title                          : Portuguese
Language                       : Portuguese
Forced                         : No
Encoded date                   : UTC 2021-12-17 09:31:06
Tagged date                    : UTC 2021-12-17 09:31:07

Text #24
ID                             : 26
Format                         : Timed Text
Codec ID                       : tx3g
Duration                       : 1 h 1 min
Bit rate mode                  : Variable
Bit rate                       : 43 b/s
Stream size                    : 19.2 KiB (0%)
Title                          : Portuguese
Language                       : Portuguese
Forced                         : No
Encoded date                   : UTC 2021-12-17 09:31:06
Tagged date                    : UTC 2021-12-17 09:31:07

Text #25
ID                             : 27
Format                         : Timed Text
Codec ID                       : tx3g
Duration                       : 1 h 1 min
Bit rate mode                  : Variable
Bit rate                       : 49 b/s
Stream size                    : 21.9 KiB (0%)
Title                          : Romanian
Language                       : Romanian
Forced                         : No
Encoded date                   : UTC 2021-12-17 09:31:06
Tagged date                    : UTC 2021-12-17 09:31:07

Text #26
ID                             : 28
Format                         : Timed Text
Codec ID                       : tx3g
Duration                       : 1 h 1 min
Bit rate mode                  : Variable
Bit rate                       : 69 b/s
Stream size                    : 31.0 KiB (0%)
Title                          : Russian
Language                       : Russian
Forced                         : No
Encoded date                   : UTC 2021-12-17 09:31:06
Tagged date                    : UTC 2021-12-17 09:31:07

Text #27
ID                             : 29
Format                         : Timed Text
Codec ID                       : tx3g
Duration                       : 1 h 1 min
Bit rate mode                  : Variable
Bit rate                       : 44 b/s
Stream size                    : 19.5 KiB (0%)
Title                          : Spanish-EU
Language                       : Spanish
Forced                         : No
Encoded date                   : UTC 2021-12-17 09:31:06
Tagged date                    : UTC 2021-12-17 09:31:07

Text #28
ID                             : 30
Format                         : Timed Text
Codec ID                       : tx3g
Duration                       : 1 h 1 min
Bit rate mode                  : Variable
Bit rate                       : 43 b/s
Stream size                    : 19.1 KiB (0%)
Title                          : Spanish-EU
Language                       : Spanish
Forced                         : No
Encoded date                   : UTC 2021-12-17 09:31:07
Tagged date                    : UTC 2021-12-17 09:31:07

Text #29
ID                             : 31
Format                         : Timed Text
Codec ID                       : tx3g
Duration                       : 1 h 1 min
Bit rate mode                  : Variable
Bit rate                       : 44 b/s
Stream size                    : 19.7 KiB (0%)
Title                          : Swedish
Language                       : Swedish
Forced                         : No
Encoded date                   : UTC 2021-12-17 09:31:07
Tagged date                    : UTC 2021-12-17 09:31:07

Text #30
ID                             : 32
Format                         : Timed Text
Codec ID                       : tx3g
Duration                       : 1 h 1 min
Bit rate mode                  : Variable
Bit rate                       : 112 b/s
Stream size                    : 50.3 KiB (0%)
Title                          : Thai
Language                       : Thai
Forced                         : No
Encoded date                   : UTC 2021-12-17 09:31:07
Tagged date                    : UTC 2021-12-17 09:31:07

Text #31
ID                             : 33
Format                         : Timed Text
Codec ID                       : tx3g
Duration                       : 1 h 1 min
Bit rate mode                  : Variable
Bit rate                       : 46 b/s
Stream size                    : 20.5 KiB (0%)
Title                          : Turkish
Language                       : Turkish
Forced                         : No
Encoded date                   : UTC 2021-12-17 09:31:07
Tagged date                    : UTC 2021-12-17 09:31:07

Text #32
ID                             : 34
Format                         : Timed Text
Codec ID                       : tx3g
Duration                       : 1 h 1 min
Bit rate mode                  : Variable
Bit rate                       : 66 b/s
Stream size                    : 29.4 KiB (0%)
Title                          : Ukrainian
Language                       : Ukrainian
Forced                         : No
Encoded date                   : UTC 2021-12-17 09:31:07
Tagged date                    : UTC 2021-12-17 09:31:07

Text #33
ID                             : 35
Format                         : Timed Text
Codec ID                       : tx3g
Duration                       : 1 h 1 min
Bit rate mode                  : Variable
Bit rate                       : 62 b/s
Stream size                    : 27.9 KiB (0%)
Title                          : Vietnamese
Language                       : Vietnamese
Forced                         : No
Encoded date                   : UTC 2021-12-17 09:31:07
Tagged date                    : UTC 2021-12-17 09:31:07


下载地址

游客,如果您要查看本帖隐藏内容请回复

游客,如果您要查看本帖隐藏内容请回复

游客,如果您要查看本帖隐藏内容请回复

游客,如果您要查看本帖隐藏内容请回复





.

上一篇:有爱 (内嵌中字)/ With Love (2021) /第一季全5集/4K高清版本下载
下一篇:猎魔人(内嵌简繁中字)(2019) /第一季全8集/4K高清版本下载
回复

使用道具 举报

0

主题

1277

帖子

3853

积分

4K家园VIP

Rank: 9Rank: 9Rank: 9

积分
3853
发表于 2021-12-19 16:23:46 | 显示全部楼层
没看懂
回复 支持 反对

使用道具 举报

0

主题

7237

帖子

1万

积分

4K家园VIP

Rank: 9Rank: 9Rank: 9

积分
16569
发表于 2021-12-19 17:03:17 | 显示全部楼层
太好啦&萬分感謝版主的無私發佈分享%
回复 支持 反对

使用道具 举报

0

主题

2

帖子

9

积分

新手上路

Rank: 1

积分
9
发表于 2021-12-19 18:28:50 | 显示全部楼层
谢谢楼主分享!
回复 支持 反对

使用道具 举报

0

主题

6

帖子

64

积分

4K家园VIP

Rank: 9Rank: 9Rank: 9

积分
64
发表于 2021-12-19 18:51:06 来自手机 | 显示全部楼层
谢谢分享
回复

使用道具 举报

0

主题

148

帖子

7658

积分

4K家园VIP

Rank: 9Rank: 9Rank: 9

积分
7658
发表于 2021-12-19 18:56:57 | 显示全部楼层
来了来了 感谢分享~~~
回复 支持 反对

使用道具 举报

0

主题

3

帖子

12

积分

新手上路

Rank: 1

积分
12
发表于 2021-12-19 19:09:46 | 显示全部楼层
谢谢楼主分享!
回复 支持 反对

使用道具 举报

0

主题

4

帖子

90

积分

新手上路

Rank: 1

积分
90
发表于 2021-12-19 20:47:18 | 显示全部楼层
感謝版主的無私發佈分
回复 支持 反对

使用道具 举报

0

主题

2

帖子

26

积分

新手上路

Rank: 1

积分
26
发表于 2021-12-19 21:12:16 | 显示全部楼层
谢谢
回复

使用道具 举报

0

主题

42

帖子

300

积分

新手上路

Rank: 1

积分
300
发表于 2021-12-19 23:53:58 | 显示全部楼层
666666666666
回复 支持 反对

使用道具 举报

您需要登录后才可以回帖 登录 | 立即注册

本版积分规则

精彩图文
Archiver|手机版|TAG|Sitemap|新帖|专题|联系我们:邮箱: 4kjia.com@gmail.com   

4k家园   ©2019