[4K电影] 天赐灵机(内嵌中字)(2021) 4K高清版本下载

[复制链接]

1323

主题

1428

帖子

1万

积分

超级版主

Rank: 8Rank: 8

积分
11131
 楼主| 发表于 2021-12-22 16:20:02 | 显示全部楼层 |阅读模式
本帖最后由 最爱4K哟 于 2021-12-22 17:27 编辑

192517ym216jxo2axo1zmb.png
◎译  名 天赐灵机/天兵阿荣(台)/失灵脑朋友(港)/罗恩失灵了
◎片  名 Ron's Gone Wrong
◎年  代 2021
◎产  地 美国,英国,加拿大
◎类  别 喜剧 / 科幻 / 动画 / 冒险
◎语  言 英语
◎上映日期 2021-10-22(美国)
◎IMDb评分  7.1/10 from 5425 users
◎IMDb链接  https://www.imdb.com/title/tt7504818/
◎豆瓣评分 7.9/10 from 1569 users
◎豆瓣链接 https://movie.douban.com/subject/33437580/
◎片  长 106分钟
◎导  演 莎拉·史密斯 Sarah Smith / 让·菲利普·维恩 Jean-Philippe Vine / 奥克塔维奥·E·罗德里格斯 Octavio E. Rodriguez
◎编  剧 彼得·贝恩汉姆 Peter Baynham / 莎拉·史密斯 Sarah Smith / 查德·戈麦斯·克雷西 Chad Gomez Creasey / 卡罗尔·海基宁 Carol Heikkinen / 乔夫·罗德基 Geoff Rodkey
◎主  演 杰克·迪伦·格雷泽 Jack Dylan Grazer
      扎克·加利凡纳基斯 Zach Galifianakis
      艾德·赫尔姆斯 Ed Helms
      奥利维娅·科尔曼 Olivia Colman
      罗伯·德兰尼 Rob Delaney
      贾斯蒂斯·史密斯 Justice Smith
      凯莉·坎特罗尔 Kylie Cantrall
      里卡多·乌尔塔多 Ricardo Hurtado
      卡伦·麦卡锡 Cullen McCarthy
      艾娃·摩士 Ava Morse
      马库斯·斯克里布纳 Marcus Scribner
      托马斯·巴布萨卡 Thomas Barbusca
      宾利·卡鲁 Bentley Kalu
      约翰·麦克米兰 John MacMillan
      梅根·马克兹柯 Megan Maczko
      卢比·瓦克斯 Ruby Wax
      大卫·曼金 David Menkin
      利亚姆·佩恩 Liam Payne
      弗卢拉·博格 Flula Borg
      大卫·布伦斯 David Burrows
      优素福·凯尔科尔 Youssef Kerkour
      菲尔·拉马 Phil LaMarr
      伊恩·麦基 Iain McKee
      安德烈·鲁滨孙 Andre Robinson
      杰登·桑德 Jadon Sand
      Adam Tandy Adam Tandy
      薇薇安·叶 ViviAnn Yee
      朱利安·赞恩 Julian Zane
       Tenley Molzahn
      Pierre Bouvier Pierre Bouvier
      Brianna Denski Brianna Denski
      海莉·威廉姆斯 Hayley Williams
       Matthew Stafford
      Mike Sorrentino Mike Sorrentino
      阿伦·艾弗森 Allen Iverson
      亚当·杜里兹 Adam Duritz
      马克·麦克格拉斯 Mark McGrath
      詹姆斯·马斯洛 James Maslow
      金·罗德斯 Kim Rhodes
      马克·霍普斯 Mark Hoppus
      小迪奥 iann dior
      Steve Harwell Steve Harwell
       Adam Lazzara
      蒂姆·莱斯-奥克斯利 Tim Rice-Oxley
      泰森·里特 Tyson Ritter
       Terrell Suggs



◎简  介

  巴尼是一个有着社交障碍的中学生。罗恩,则是他全新的行走、交流、数字连接的设备。罗恩是巴尼“开箱即用的最好朋友”。在社交媒体的背景下,罗恩的搞笑故障,将他们带入了一场动感十足的旅程,男孩和机器人在这段旅程中接受了真实友谊的美妙和混乱。
General
Complete name                  : H:\4K@电影\Rons.Gone.Wrong.2021.2160p.WEB-DL.DDP7.1.DV.H.265-TEPES.mp4
Format                         : MPEG-4
Format profile                 : Base Media / Version 2
Codec ID                       : mp42 (isom/mp42/dby1)
File size                      : 17.7 GiB
Duration                       : 1 h 46 min
Overall bit rate mode          : Variable
Overall bit rate               : 23.7 Mb/s

Video
ID                             : 1
Format                         : HEVC
Format/Info                    : High Efficiency Video Coding
Format profile                 : Main 10@L5.2@Main
HDR format                     : Dolby Vision, Version 1.0, dvhe.05.06, BL+RPU
Codec ID                       : dvhe
Codec ID/Info                  : High Efficiency Video Coding with Dolby Vision
Duration                       : 1 h 46 min
Bit rate                       : 22.1 Mb/s
Width                          : 3 840 pixels
Height                         : 2 160 pixels
Display aspect ratio           : 16:9
Frame rate mode                : Constant
Frame rate                     : 23.976 (24000/1001) FPS
Color space                    : YUV
Chroma subsampling             : 4:2:0 (Type 0)
Bit depth                      : 10 bits
Bits/(Pixel*Frame)             : 0.111
Stream size                    : 16.5 GiB (93%)
Default                        : Yes
Alternate group                : 1
Color range                    : Full
Codec configuration box        : hvcC+dvcC

Audio
ID                             : 2
Format                         : E-AC-3
Format/Info                    : Enhanced AC-3
Commercial name                : Dolby Digital Plus
Format profile                 : Blu-ray Disc
Codec ID                       : ec-3
Duration                       : 1 h 46 min
Source duration                : 1 h 46 min
Bit rate mode                  : Constant
Bit rate                       : 1 536 kb/s
Maximum bit rate               : 1 622 kb/s
Channel(s)                     : 8 channels
Channel layout                 : L R C LFE Ls Rs Lb Rb
Sampling rate                  : 48.0 kHz
Frame rate                     : 31.250 FPS (1536 SPF)
Compression mode               : Lossy
Stream size                    : 1.15 GiB (6%)
Source stream size             : 1.15 GiB (6%)
Language                       : English
Service kind                   : Complete Main
Default                        : Yes
Alternate group                : 1

Text #1
ID                             : 4
Format                         : Timed Text
Codec ID                       : tx3g
Duration                       : 1 h 40 min
Bit rate mode                  : Variable
Bit rate                       : 87 b/s
Stream size                    : 64.1 KiB (0%)
Language                       : English
Forced                         : No

Text #2
ID                             : 5
Format                         : Timed Text
Codec ID                       : tx3g
Duration                       : 1 h 44 min
Bit rate mode                  : Variable
Bit rate                       : 133 b/s
Stream size                    : 102 KiB (0%)
Title                          : SDH
Language                       : English
Forced                         : No

Text #3
ID                             : 6
Format                         : Timed Text
Codec ID                       : tx3g
Duration                       : 1 h 46 min
Bit rate mode                  : Variable
Bit rate                       : 70 b/s
Stream size                    : 55.0 KiB (0%)
Language                       : Spanish
Forced                         : No

Text #4
ID                             : 7
Format                         : Timed Text
Codec ID                       : tx3g
Duration                       : 1 h 46 min
Bit rate mode                  : Variable
Bit rate                       : 70 b/s
Stream size                    : 54.3 KiB (0%)
Language                       : Finnish
Forced                         : No

Text #5
ID                             : 8
Format                         : Timed Text
Codec ID                       : tx3g
Duration                       : 1 h 46 min
Bit rate mode                  : Variable
Bit rate                       : 73 b/s
Stream size                    : 57.0 KiB (0%)
Language                       : Indonesian
Forced                         : No

Text #6
ID                             : 9
Format                         : Timed Text
Codec ID                       : tx3g
Duration                       : 1 h 46 min
Bit rate mode                  : Variable
Bit rate                       : 65 b/s
Stream size                    : 51.1 KiB (0%)
Language                       : French
Forced                         : No

Text #7
ID                             : 10
Format                         : Timed Text
Codec ID                       : tx3g
Duration                       : 1 h 46 min
Bit rate mode                  : Variable
Bit rate                       : 76 b/s
Stream size                    : 59.7 KiB (0%)
Language                       : Italian
Forced                         : No

Text #8
ID                             : 11
Format                         : Timed Text
Codec ID                       : tx3g
Duration                       : 1 h 46 min
Bit rate mode                  : Variable
Bit rate                       : 77 b/s
Stream size                    : 60.2 KiB (0%)
Language                       : Malay
Forced                         : No

Text #9
ID                             : 12
Format                         : Timed Text
Codec ID                       : tx3g
Duration                       : 1 h 46 min
Bit rate mode                  : Variable
Bit rate                       : 64 b/s
Stream size                    : 50.3 KiB (0%)
Language                       : Dutch
Forced                         : No

Text #10
ID                             : 13
Format                         : Timed Text
Codec ID                       : tx3g
Duration                       : 1 h 46 min
Bit rate mode                  : Variable
Bit rate                       : 71 b/s
Stream size                    : 55.4 KiB (0%)
Language                       : Norwegian
Forced                         : No

Text #11
ID                             : 14
Format                         : Timed Text
Codec ID                       : tx3g
Duration                       : 1 h 46 min
Bit rate mode                  : Variable
Bit rate                       : 74 b/s
Stream size                    : 57.6 KiB (0%)
Language                       : Polish
Forced                         : No

Text #12
ID                             : 15
Format                         : Timed Text
Codec ID                       : tx3g
Duration                       : 1 h 46 min
Bit rate mode                  : Variable
Bit rate                       : 80 b/s
Stream size                    : 62.6 KiB (0%)
Language                       : Portuguese
Forced                         : No

Text #13
ID                             : 16
Format                         : Timed Text
Codec ID                       : tx3g
Duration                       : 1 h 46 min
Bit rate mode                  : Variable
Bit rate                       : 79 b/s
Stream size                    : 61.7 KiB (0%)
Language                       : Romanian
Forced                         : No

Text #14
ID                             : 17
Format                         : Timed Text
Codec ID                       : tx3g
Duration                       : 1 h 46 min
Bit rate mode                  : Variable
Bit rate                       : 63 b/s
Stream size                    : 48.9 KiB (0%)
Language                       : Swedish
Forced                         : No

Text #15
ID                             : 18
Format                         : Timed Text
Codec ID                       : tx3g
Duration                       : 1 h 46 min
Bit rate mode                  : Variable
Bit rate                       : 172 b/s
Stream size                    : 135 KiB (0%)
Language                       : Thai
Forced                         : No

Text #16
ID                             : 19
Format                         : Timed Text
Codec ID                       : tx3g
Duration                       : 1 h 46 min
Bit rate mode                  : Variable
Bit rate                       : 74 b/s
Stream size                    : 58.0 KiB (0%)
Language                       : 中文
Forced                         : No


Menu
00:00:00.000                   : Chapter 1
00:07:56.518                   : Chapter 2
00:14:33.414                   : Chapter 3
00:21:30.748                   : Chapter 4
00:29:56.294                   : Chapter 5
00:35:10.275                   : Chapter 6
00:40:03.109                   : Chapter 7
00:45:48.079                   : Chapter 8
00:52:33.692                   : Chapter 9
00:58:06.274                   : Chapter 10
01:04:14.184                   : Chapter 11
01:11:22.153                   : Chapter 12
01:19:43.362                   : Chapter 13
01:23:35.219                   : Chapter 14
01:28:52.661                   : Chapter 15
01:32:57.280                   : Chapter 16
01:37:34.348                   : Chapter 17
01:40:01.996                   : Chapter 18


迅雷下载资源速度为零或资源敏感被和谐时,推荐使用qBittorrent等下载软件,有条件的推荐115更好的下载软件!

下载地址

游客,如果您要查看本帖隐藏内容请回复




.


上一篇:触不到的恋人 / The Lake House (2006) 4K高清版本下载
下一篇:新生化危机(外挂中字)(2021) 4K高清版本下载
回复

使用道具 举报

49

主题

1436

帖子

4114

积分

4K家园VIP

Rank: 9Rank: 9Rank: 9

积分
4114
发表于 2021-12-22 16:20:06 | 显示全部楼层
好帖必须得顶起
回复 支持 反对

使用道具 举报

2

主题

1624

帖子

4512

积分

4K家园VIP

Rank: 9Rank: 9Rank: 9

积分
4512
发表于 2021-12-22 16:20:06 来自手机 | 显示全部楼层
多发些资源啊
回复 支持 反对

使用道具 举报

48

主题

1558

帖子

4488

积分

4K家园VIP

Rank: 9Rank: 9Rank: 9

积分
4488
发表于 2021-12-22 16:47:17 | 显示全部楼层
高手云集 果断围观
回复 支持 反对

使用道具 举报

0

主题

5

帖子

47

积分

新手上路

Rank: 1

积分
47
发表于 2021-12-22 17:22:24 | 显示全部楼层
人切割去改提前光头强高清个人
回复 支持 反对

使用道具 举报

51

主题

1483

帖子

4269

积分

4K家园VIP

Rank: 9Rank: 9Rank: 9

积分
4269
发表于 2021-12-22 17:30:02 | 显示全部楼层
向楼主学习
回复 支持 反对

使用道具 举报

48

主题

1471

帖子

4231

积分

4K家园VIP

Rank: 9Rank: 9Rank: 9

积分
4231
发表于 2021-12-22 17:45:17 | 显示全部楼层
感谢推荐,确实不错
回复 支持 反对

使用道具 举报

0

主题

7237

帖子

1万

积分

4K家园VIP

Rank: 9Rank: 9Rank: 9

积分
16569
发表于 2021-12-22 18:14:01 | 显示全部楼层
太好啦&萬分感謝版主的無私發佈分享%
回复 支持 反对

使用道具 举报

您需要登录后才可以回帖 登录 | 立即注册

本版积分规则

精彩图文
Archiver|手机版|TAG|Sitemap|新帖|专题|联系我们:邮箱: 4kjia.com@gmail.com   

4k家园   ©2019