[4K电影] 黑客帝国:矩阵重启(外挂中字)(2021) 4K高清版本下载

    [复制链接]

1701

主题

1834

帖子

1万

积分

超级版主

Rank: 8Rank: 8

积分
13887
 楼主| 发表于 2021-12-22 17:10:00 | 显示全部楼层 |阅读模式
本帖最后由 最爱4K哟 于 2021-12-23 20:32 编辑

QQ图片20211222171454_副本.png

◎译  名 黑客帝国:矩阵重启 / 22世纪杀人网络:复活次元(港) / 骇客任务:复活(台) / 骇客任务4 / 骇客帝国4 / 黑客帝国:复兴 / 黑客帝国4:矩阵重生
◎片  名 The Matrix Resurrections
◎年  代 2021
◎产  地 美国
◎类  别 动作 / 科幻
◎语  言 英语
◎上映日期 2021-12-22(美国) / 2022-01-14(中国大陆)
◎IMDb评分 6.7/10 from 4628 users
◎IMDb链接 https://www.imdb.com/title/tt10838180
◎豆瓣评分 0/10 from 0 users
◎豆瓣链接 https://movie.douban.com/subject/34801038
◎片  长 147分钟
◎导  演 拉娜·沃卓斯基 Lana Wachowski
◎编  剧 拉娜·沃卓斯基 Lana Wachowski / 大卫·米切尔 David Mitchell / 亚历山大·赫蒙 Aleksandar Hemon
◎主  演 基努·里维斯 Keanu Reeves
       凯瑞-安·莫斯 Carrie-Anne Moss
       叶海亚·阿卜杜勒-迈丁 Yahya Abdul-Mateen II
       杰西卡·亨维克 Jessica Henwick
       乔纳森·格罗夫 Jonathan Groff
       尼尔·帕特里克·哈里斯 Neil Patrick Harris
       佩丽冉卡·曹帕拉 Priyanka Chopra
       克里斯蒂娜·里奇 Christina Ricci
       特尔玛·霍普金斯 Telma Hopkins
       埃伦迪拉·伊瓦拉 Eréndira Ibarra
       托比·奥伍梅尔 Toby Onwumere
       马克思·雷迈特 Max Riemelt
       布莱恩·J·史密斯 Brian J. Smith
       贾达·萍克·史密斯 Jada Pinkett Smith
       丹尼尔·伯哈特 Daniel Bernhardt
       艾伦·霍尔曼 Ellen Hollman
       朗贝尔·维尔森 Lambert Wilson
       安德鲁·卡德威尔 Andrew Caldwell
       伊恩·皮里 Ian Pirie
       威廉·W·巴伯 William W. Barbour
       埃尔文·费利西达 Erwin Felicilda
       迈克尔·J·格温 Michael J. Gwynn
       Linda Joy Henry Linda Joy Henry
       约翰·洛巴托 John Lobato
       安妮-玛丽·奥尔森 Anne-Marie Olsen
       艾蒂安·维克 Etienne Vick
       克莱顿·华生 Clayton Watson
       詹姆斯·D·韦斯顿二世 James D. Weston II


◎简  介


  尼奥(基努·里维斯 Keanu Reeves 饰)和崔妮蒂(凯瑞-安·莫斯 Carrie-Anne Moss 饰)重回矩阵:在这里,一个是矩阵创造出来,周而复始的日常世界,另一个则是隐藏其后,真实的人类世界。为了弄清楚自己所处的“现实”究竟是真是假,尼奥不得不再次做出选择……


◎获奖情况


  第7届豆瓣电影年度榜单  (2020)
  最值得期待的外语电影(提名)

General
Complete name                  : E:\4K@电影\The.Matrix.Resurrections.2021.HDR.2160p.WEB.H265-PECULATE.mkv
Format                         : Matroska
Format version                 : Version 4
File size                      : 13.1 GiB
Duration                       : 2 h 27 min
Overall bit rate               : 12.6 Mb/s
Encoded date                   : UTC 2021-12-22 08:03:42
Writing application            : mkvmerge v63.0.0 ('Everything') 64-bit
Writing library                : libebml v1.4.2 + libmatroska v1.6.4
IsTruncated                    : Yes

Video
ID                             : 1
Format                         : HEVC
Format/Info                    : High Efficiency Video Coding
Format profile                 : Main 10@L5@Main
HDR format                     : SMPTE ST 2086, HDR10 compatible
Codec ID                       : V_MPEGH/ISO/HEVC
Duration                       : 2 h 27 min
Bit rate                       : 11.6 Mb/s
Width                          : 3 840 pixels
Height                         : 2 160 pixels
Display aspect ratio           : 16:9
Frame rate mode                : Constant
Frame rate                     : 23.976 (24000/1001) FPS
Color space                    : YUV
Chroma subsampling             : 4:2:0
Bit depth                      : 10 bits
Bits/(Pixel*Frame)             : 0.058
Stream size                    : 12.0 GiB (92%)
Writing library                : x265 3.4hy:[Linux][GCC 7.5.0][64 bit] 10bit
Encoding settings              : cpuid=1111039 / frame-threads=1 / wpp / no-pmode / no-pme / no-psnr / no-ssim / log-level=2 / input-csp=1 / input-res=3840x2160 / interlace=0 / total-frames=0 / level-idc=0 / high-tier=1 / uhd-bd=0 / ref=4 / no-allow-non-conformance / repeat-headers / annexb / no-aud / no-hrd / info / hash=0 / no-temporal-layers / no-open-gop / min-keyint=96 / keyint=96 / gop-lookahead=0 / bframes=3 / b-adapt=2 / b-pyramid / bframe-bias=0 / rc-lookahead=25 / lookahead-slices=4 / scenecut=40 / hist-scenecut=0 / radl=0 / no-splice / no-intra-refresh / ctu=64 / min-cu-size=8 / rect / no-amp / max-tu-size=32 / tu-inter-depth=1 / tu-intra-depth=1 / limit-tu=0 / rdoq-level=2 / dynamic-rd=0.00 / no-ssim-rd / signhide / no-tskip / nr-intra=0 / nr-inter=0 / no-constrained-intra / strong-intra-smoothing / max-merge=3 / limit-refs=3 / limit-modes / me=3 / subme=3 / merange=57 / temporal-mvp / no-frame-dup / no-hme / weightp / no-weightb / no-analyze-src-pics / deblock=0:0 / sao / no-sao-non-deblock / rd=4 / selective-sao=4 / no-early-skip / rskip / no-fast-intra / no-tskip-fast / no-cu-lossless / no-b-intra / no-splitrd-skip / rdpenalty=0 / psy-rd=2.00 / psy-rdoq=1.00 / no-rd-refine / no-lossless / cbqpoffs=0 / crqpoffs=0 / rc=abr / bitrate=18000 / qcomp=0.60 / qpstep=4 / stats-write=0 / stats-read=2 / cplxblur=20.0 / qblur=0.5 / vbv-maxrate=24500 / vbv-bufsize=24500 / vbv-init=0.6 / vbv-end=0.6 / vbv-end-fr-adj=0.0 / ipratio=1.40 / pbratio=1.30 / aq-mode=2 / aq-strength=1.00 / cutree / zone-count=0 / no-strict-cbr / qg-size=32 / no-rc-grain / qpmax=69 / qpmin=0 / no-const-vbv / sar=0 / overscan=0 / videoformat=5 / range=0 / colorprim=9 / transfer=16 / colormatrix=9 / chromaloc=0 / display-window=0 / master-display=G(13250,34500)B(7500,3000)R(34000,16000)WP(15635,16450)L(40000000,50) / cll=1044,648 / min-luma=0 / max-luma=1023 / log2-max-poc-lsb=8 / vui-timing-info / vui-hrd-info / no-concatenation / slices=1 / no-opt-qp-pps / no-opt-ref-list-length-pps / no-multi-pass-opt-rps / scenecut-bias=0.05 / hist-threshold=0.01 / no-opt-cu-delta-qp / no-aq-motion / hdr10 / no-hdr10-opt / no-dhdr10-opt / no-idr-recovery-sei / analysis-reuse-level=0 / analysis-save-reuse-level=0 / analysis-load-reuse-level=0 / scale-factor=0 / refine-intra=0 / refine-inter=0 / refine-mv=1 / refine-ctu-distortion=0 / no-limit-sao / ctu-info=0 / no-lowpass-dct / refine-analysis-type=0 / copy-pic=1 / max-ausize-factor=1.0 / no-dynamic-refine / no-single-sei / no-hevc-aq / no-svt / no-field / qp-adaptation-range=1.00 / no-scenecut-aware-qpconformance-window-offsets / right=0 / bottom=0 / decoder-max-rate=0
Language                       : English
Default                        : Yes
Forced                         : No
Color range                    : Limited
Color primaries                : BT.2020
Transfer characteristics       : PQ
Matrix coefficients            : BT.2020 non-constant
Mastering display color primar : Display P3
Mastering display luminance    : min: 0.0050 cd/m2, max: 4000 cd/m2
Maximum Content Light Level    : 1044 cd/m2
Maximum Frame-Average Light Le : 648 cd/m2

Audio
ID                             : 2
Format                         : E-AC-3 JOC
Format/Info                    : Enhanced AC-3 with Joint Object Coding
Commercial name                : Dolby Digital Plus with Dolby Atmos
Codec ID                       : A_EAC3
Duration                       : 2 h 27 min
Bit rate mode                  : Constant
Bit rate                       : 768 kb/s
Channel(s)                     : 6 channels
Channel layout                 : L R C LFE Ls Rs
Sampling rate                  : 48.0 kHz
Frame rate                     : 31.250 FPS (1536 SPF)
Compression mode               : Lossy
Stream size                    : 813 MiB (6%)
Language                       : English
Service kind                   : Complete Main
Default                        : Yes
Forced                         : No
Complexity index               : 16
Number of dynamic objects      : 15
Bed channel count              : 1 channel
Bed channel configuration      : LFE

Text #1
ID                             : 3
Format                         : UTF-8
Codec ID                       : S_TEXT/UTF8
Codec ID/Info                  : UTF-8 Plain Text
Title                          : English [CC]
Language                       : English
Default                        : No
Forced                         : No

Text #2
ID                             : 4
Format                         : UTF-8
Codec ID                       : S_TEXT/UTF8
Codec ID/Info                  : UTF-8 Plain Text
Title                          : Latin American Spanish [CC]
Language                       : Spanish
Default                        : No
Forced                         : No

迅雷下载资源速度为零或资源敏感被和谐时,推荐使用qBittorrent等下载软件,有条件的推荐115更好的下载软件!

下载地址
游客,如果您要查看本帖隐藏内容请回复

游客,如果您要查看本帖隐藏内容请回复

游客,如果您要查看本帖隐藏内容请回复

游客,如果您要查看本帖隐藏内容请回复

游客,如果您要查看本帖隐藏内容请回复


黑客帝国:矩阵重启外挂字幕文件:(不喜勿下)
游客,如果您要查看本帖隐藏内容请回复



.




上一篇:里卡多一家(内嵌简繁中字) (2021) 4K高清版本下载
下一篇:《蜘蛛侠:英雄无归》大概什么时候能看到?
回复

使用道具 举报

2

主题

1149

帖子

3467

积分

4K家园VIP

Rank: 9Rank: 9Rank: 9

积分
3467
发表于 2021-12-22 17:10:04 来自手机 | 显示全部楼层
不错 支持下
回复 支持 反对

使用道具 举报

0

主题

8

帖子

119

积分

新手上路

Rank: 1

积分
119
发表于 2021-12-22 17:24:43 | 显示全部楼层
感谢分享,有字幕吗
回复 支持 反对

使用道具 举报

0

主题

4

帖子

58

积分

新手上路

Rank: 1

积分
58
发表于 2021-12-22 17:31:43 | 显示全部楼层
期待
回复

使用道具 举报

0

主题

2

帖子

9

积分

新手上路

Rank: 1

积分
9
发表于 2021-12-22 17:37:24 | 显示全部楼层
支持
回复

使用道具 举报

0

主题

3

帖子

32

积分

新手上路

Rank: 1

积分
32
发表于 2021-12-22 18:08:56 | 显示全部楼层
不错 支持下
回复 支持 反对

使用道具 举报

0

主题

94

帖子

764

积分

新手上路

Rank: 1

积分
764
发表于 2021-12-22 18:12:32 | 显示全部楼层
zhichi
回复

使用道具 举报

0

主题

2

帖子

12

积分

新手上路

Rank: 1

积分
12
发表于 2021-12-22 18:15:12 | 显示全部楼层
感谢分享,有字幕吗
回复 支持 反对

使用道具 举报

0

主题

8229

帖子

1万

积分

4K家园VIP

Rank: 9Rank: 9Rank: 9

积分
18809
发表于 2021-12-22 18:15:22 | 显示全部楼层
太好啦&萬分感謝版主的無私發佈分享%
回复 支持 反对

使用道具 举报

匿名  发表于 2021-12-22 18:22:50
nnxjnxjxnjxjxnxjxnxdjxdk
回复 支持 反对

使用道具

您需要登录后才可以回帖 登录 | 立即注册

本版积分规则

精彩图文
Archiver|手机版|TAG|Sitemap|新帖|专题|联系我们:邮箱: 4kjia.com@gmail.com   

4k家园   ©2019