[4K电影] 呼朋引伴 / C'mon C'mon (2021) 4K高清版本下载

[复制链接]

1323

主题

1428

帖子

1万

积分

超级版主

Rank: 8Rank: 8

积分
11131
 楼主| 发表于 2021-12-23 20:11:37 | 显示全部楼层 |阅读模式
本帖最后由 最爱4K哟 于 2021-12-27 20:24 编辑

QQ图片20211223200902_副本.png

◎译  名 呼朋引伴/C'mon C'mon
◎片  名 C'mon C'mon
◎年  代 2021
◎产  地 美国
◎类  别 剧情
◎语  言 英语
◎上映日期 2021-09-02(特柳赖德电影节) / 2021-11-19(美国)
◎IMDb评分  8.1/10 from 3230 users
◎IMDb链接  https://www.imdb.com/title/tt10986222/
◎豆瓣评分 8.3/10 from 458 users
◎豆瓣链接 https://movie.douban.com/subject/34840705/
◎片  长 108分钟
◎导  演 迈克·米尔斯 Mike Mills
◎编  剧 迈克·米尔斯 Mike Mills
◎主  演 华金·菲尼克斯 Joaquin Phoenix
      伍迪·诺曼 Woody Norman
      盖比·霍夫曼 Gaby Hoffmann
      斯科特·麦克纳里 Scoot McNairy
      雅布其·杨-怀特 Jaboukie Young-White
      Callan Farris Callan Farris



◎简  介

  讲述一个好心眼儿的纪录片导演一边完成一个项目,一边照顾自己的小侄子。

◎获奖情况

  第31届哥谭独立电影奖 ?(2021)
  最佳主角演出(提名) 华金·菲尼克斯
  最佳配角演出(提名) 盖比·霍夫曼
Video
ID : 1
Format : HEVC
Format/Info : High Efficiency Video Coding
Format profile : Main 10@L5@High
Codec ID : V_MPEGH/ISO/HEVC
Duration : 1 h 49 min
Bit rate : 20.6 Mb/s
Width : 3 576 pixels
Height : 2 156 pixels
Display aspect ratio : 5:3
Frame rate mode : Constant
Frame rate : 23.976 FPS
Color space : YUV
Chroma subsampling : 4:2:0
Bit depth : 10 bits
Bits/(Pixel*Frame) : 0.111
Stream size : 15.7 GiB (96%)
Default : Yes
Forced : No
Color range : Limited
Color primaries : BT.709
Transfer characteristics : BT.709
Matrix coefficients : BT.709

Audio
ID : 2
Format : E-AC-3 JOC
Format/Info : Enhanced AC-3 with Joint Object Coding
Commercial name : Dolby Digital Plus with Dolby Atmos
Codec ID : A_EAC3
Duration : 1 h 49 min
Bit rate mode : Constant
Bit rate : 768 kb/s
Channel(s) : 6 channels
Channel layout : L R C LFE Ls Rs
Sampling rate : 48.0 kHz
Frame rate : 31.250 FPS (1536 SPF)
Compression mode : Lossy
Stream size : 601 MiB (4%)
Title : English
Language : English
Service kind : Complete Main
Default : No
Forced : No
Complexity index : 16
Number of dynamic objects : 15
Bed channel count : 1 channel
Bed channel configuration : LFE

Text #1
ID : 3
Format : UTF-8
Codec ID : S_TEXT/UTF8
Codec ID/Info : UTF-8 Plain Text
Duration : 1 h 48 min
Bit rate : 86 b/s
Count of elements : 2170
Stream size : 68.6 KiB (0%)
Language : English
Default : Yes
Forced : No

Text #2
ID : 4
Format : UTF-8
Codec ID : S_TEXT/UTF8
Codec ID/Info : UTF-8 Plain Text
Duration : 1 h 48 min
Bit rate : 69 b/s
Count of elements : 1622
Stream size : 55.8 KiB (0%)
Title : Spanish
Language : Spanish
Default : No
Forced : No

迅雷下载资源速度为零或资源敏感被和谐时,推荐使用qBittorrent等下载软件,有条件的推荐115更好的下载软件!


下载地址

游客,如果您要查看本帖隐藏内容请回复

游客,如果您要查看本帖隐藏内容请回复

游客,如果您要查看本帖隐藏内容请回复

游客,如果您要查看本帖隐藏内容请回复





.


上一篇:《蜘蛛侠:英雄无归》大概什么时候能看到?
下一篇:塔米·菲的眼睛(内嵌中字)(2021) 4K高清版本下载
回复

使用道具 举报

59

主题

1453

帖子

4213

积分

4K家园VIP

Rank: 9Rank: 9Rank: 9

积分
4213
发表于 2021-12-23 20:11:42 | 显示全部楼层
呵呵,低调,低调!
回复 支持 反对

使用道具 举报

30

主题

1193

帖子

3557

积分

4K家园VIP

Rank: 9Rank: 9Rank: 9

积分
3557
发表于 2021-12-23 21:10:47 | 显示全部楼层
沙发???
回复 支持 反对

使用道具 举报

54

主题

1522

帖子

4340

积分

4K家园VIP

Rank: 9Rank: 9Rank: 9

积分
4340
发表于 2021-12-23 21:58:51 | 显示全部楼层
哈哈,我只看看不说话
回复 支持 反对

使用道具 举报

52

主题

1455

帖子

4231

积分

4K家园VIP

Rank: 9Rank: 9Rank: 9

积分
4231
发表于 2021-12-23 22:05:39 | 显示全部楼层
回个帖子,下班咯~
回复 支持 反对

使用道具 举报

0

主题

7237

帖子

1万

积分

4K家园VIP

Rank: 9Rank: 9Rank: 9

积分
16569
发表于 2021-12-23 22:29:17 | 显示全部楼层
太好啦&萬分感謝版主的無私發佈分享%
回复 支持 反对

使用道具 举报

0

主题

1305

帖子

3915

积分

4K家园VIP

Rank: 9Rank: 9Rank: 9

积分
3915
发表于 2021-12-24 00:32:41 | 显示全部楼层
支持支持再支持
回复 支持 反对

使用道具 举报

0

主题

1

帖子

6

积分

新手上路

Rank: 1

积分
6
发表于 2021-12-24 00:41:52 来自手机 | 显示全部楼层
EXOucjfjfxjvkck
回复 支持 反对

使用道具 举报

0

主题

688

帖子

2402

积分

注册会员

Rank: 2

积分
2402
发表于 2021-12-24 19:29:54 | 显示全部楼层
谢谢楼主分享
回复 支持 反对

使用道具 举报

0

主题

1

帖子

6

积分

新手上路

Rank: 1

积分
6
发表于 2021-12-31 20:11:33 | 显示全部楼层
感谢分享。
回复

使用道具 举报

您需要登录后才可以回帖 登录 | 立即注册

本版积分规则

精彩图文
Archiver|手机版|TAG|Sitemap|新帖|专题|联系我们:邮箱: 4kjia.com@gmail.com   

4k家园   ©2019