[4K电影] 塔米·菲的眼睛(内嵌中字)(2021) 4K高清版本下载

[复制链接]

1339

主题

1444

帖子

1万

积分

超级版主

Rank: 8Rank: 8

积分
11232
 楼主| 发表于 2021-12-23 20:20:57 | 显示全部楼层 |阅读模式

QQ图片20211223201828_副本.png

◎译  名 塔米·菲的眼睛/神圣电视台(台)
◎片  名 The Eyes of Tammy Faye
◎年  代 2021
◎产  地 加拿大,美国
◎类  别 剧情 / 传记 / 历史
◎语  言 英语
◎上映日期 2021-09-12(多伦多电影节) / 2021-09-17(美国)
◎IMDb评分  6.7/10 from 5279 users
◎IMDb链接  https://www.imdb.com/title/tt9115530/
◎豆瓣评分 6.5/10 from 843 users
◎豆瓣链接 https://movie.douban.com/subject/33440550/
◎片  长 126分钟
◎导  演 迈克尔·肖沃特 Michael Showalter
◎编  剧 Fenton Bailey Fenton Bailey / Randy Barbato Randy Barbato
◎主  演 杰西卡·查斯坦 Jessica Chastain
      安德鲁·加菲尔德 Andrew Garfield
      切莉·琼斯 Cherry Jones
      文森特·多诺费奥 Vincent D'Onofrio
      马克·怀斯特拉克 Mark Wystrach
      山姆·贾格 Sam Jaeger
      路易斯·坎瑟米 Louis Cancelmi
      加布里埃尔·奥尔德斯 Gabriel Olds
      弗瑞德里克·林恩 Fredric Lehne
      钱德勒·海德 Chandler Head
      杰伊·胡古雷 Jay Huguley
      Grant Owens Grant Owens
      柯莉·坎帕尼 Coley Campany
      杰丝·威克斯勒 Jess Weixler
      林赛·艾利夫 Lindsay Ayliffe
      兰德尔·P·海文斯 Randall P. Havens
       Joe Ando-Hirsh
      Drew Broderick Drew Broderick
      布伦特·莫雷尔·加斯金斯 Brent Moorer Gaskins
      Tanya Jacobson Tanya Jacobson
       Donald Norris Jr.



◎简  介

  《综艺》报道:杰西卡·查斯坦与安德鲁·加菲尔德将出演[福斯探照灯]传记片《#塔米·菲的眼睛#》(Eyes of Tammy Faye)。该作品改编自2000年同名纪录片,讲述塔米·菲(杰西卡·查斯坦 饰)和吉姆·贝克(安德鲁·加菲尔德 饰)这对夫妇作为电视福音布道家的大起大落。在上世纪70-80年代,塔米·菲和吉姆·贝克从贫寒中奋起,创建了当时世界上最庞大的宗教广播电视网和一个主题公园,从而受人敬仰。不过好景不长,经济上的不当行为、诡计多端的竞争对手以及性丑闻的爆发使得这对夫妇的婚姻破裂,导致他们精心构建起来的帝国从而崩塌。影片将由“大病”导演迈克尔·肖沃特执导。杰西卡·查斯坦会担任本片制片人。

◎获奖情况

  第79届金球奖 ?(2022)
  电影类剧情片最佳女主角(提名) 杰西卡·查斯坦

  第69届圣塞巴斯蒂安国际电影节 ?(2021)
  金贝壳奖(提名) 迈克尔·肖沃特
  最佳主角表演 杰西卡·查斯坦
Video
ID : 1
Format : HEVC
Format/Info : High Efficiency Video Coding
Format profile : Main@L5@High
Codec ID : V_MPEGH/ISO/HEVC
Duration : 2 h 6 min
Bit rate : 20.0 Mb/s
Width : 3 840 pixels
Height : 2 160 pixels
Display aspect ratio : 16:9
Frame rate mode : Constant
Frame rate : 23.976 (24000/1001/189150) FPS
Color space : YUV
Chroma subsampling : 4:2:0
Bit depth : 8 bits
Bits/(Pixel*Frame) : 0.101
Stream size : 17.7 GiB (86%)
Writing library : x265 3.5:[Linux][GCC 9.3.0][64 bit] 8bit+10bit+12bit
Encoding settings : cpuid=1111039 / frame-threads=1 / numa-pools=16 / wpp / no-pmode / no-pme / no-psnr / no-ssim / log-level=2 / input-csp=1 / input-res=3840x2160 / interlace=0 / total-frames=0 / level-idc=50 / high-tier=1 / uhd-bd=0 / ref=2 / no-allow-non-conformance / repeat-headers / annexb / no-aud / no-hrd / info / hash=0 / no-temporal-layers / no-open-gop / min-keyint=48 / keyint=48 / gop-lookahead=0 / bframes=4 / b-adapt=1 / b-pyramid / bframe-bias=0 / rc-lookahead=48 / lookahead-slices=8 / scenecut=0 / hist-scenecut=0 / radl=0 / no-splice / no-intra-refresh / ctu=32 / min-cu-size=8 / no-rect / no-amp / max-tu-size=16 / tu-inter-depth=2 / tu-intra-depth=2 / limit-tu=0 / rdoq-level=1 / dynamic-rd=0.00 / no-ssim-rd / signhide / no-tskip / nr-intra=0 / nr-inter=0 / no-constrained-intra / no-strong-intra-smoothing / max-merge=3 / limit-refs=1 / no-limit-modes / me=1 / subme=2 / merange=44 / temporal-mvp / no-frame-dup / no-hme / weightp / no-weightb / no-analyze-src-pics / deblock=0:0 / no-sao / no-sao-non-deblock / rd=4 / selective-sao=0 / early-skip / rskip / no-fast-intra / no-tskip-fast / no-cu-lossless / b-intra / no-splitrd-skip / rdpenalty=1 / psy-rd=1.60 / psy-rdoq=5.00 / no-rd-refine / no-lossless / cbqpoffs=0 / crqpoffs=0 / rc=abr / bitrate=20000 / qcomp=0.75 / qpstep=4 / stats-write=0 / stats-read=0 / vbv-maxrate=24000 / vbv-bufsize=40000 / vbv-init=0.9 / ipratio=1.40 / pbratio=1.30 / aq-mode=3 / aq-strength=1.00 / no-cutree / zone-count=0 / no-strict-cbr / qg-size=32 / no-rc-grain / qpmax=69 / qpmin=0 / no-const-vbv / sar=1 / overscan=0 / videoformat=5 / range=0 / colorprim=1 / transfer=2 / colormatrix=1 / chromaloc=0 / display-window=0 / cll=0,0 / min-luma=0 / max-luma=255 / log2-max-poc-lsb=8 / vui-timing-info / vui-hrd-info / slices=1 / no-opt-qp-pps / no-opt-ref-list-length-pps / no-multi-pass-opt-rps / scenecut-bias=0.00 / hist-threshold=0.01 / no-opt-cu-delta-qp / no-aq-motion / no-hdr10 / no-hdr10-opt / no-dhdr10-opt / no-idr-recovery-sei / analysis-reuse-level=0 / analysis-save-reuse-level=0 / analysis-load-reuse-level=0 / scale-factor=0 / refine-intra=0 / refine-inter=0 / refine-mv=1 / refine-ctu-distortion=0 / no-limit-sao / ctu-info=0 / no-lowpass-dct / refine-analysis-type=0 / copy-pic=1 / max-ausize-factor=1.0 / no-dynamic-refine / no-single-sei / no-hevc-aq / no-svt / no-field / qp-adaptation-range=1.00 / no-scenecut-aware-qpconformance-window-offsets / right=0 / bottom=0
Default : Yes
Forced : No
Color range : Limited
Color primaries : BT.709
Matrix coefficients : BT.709

Audio
ID : 2
Format : DTS XLL
Format/Info : Digital Theater Systems
Commercial name : DTS-HD Master Audio
Codec ID : A_DTS
Duration : 2 h 6 min
Bit rate mode : Variable
Bit rate : 3 164 kb/s
Channel(s) : 6 channels
Channel layout : C L R Ls Rs LFE
Sampling rate : 48.0 kHz
Frame rate : 93.750 FPS (512 SPF)
Bit depth : 24 bits
Compression mode : Lossless
Delay relative to video : 5 ms
Stream size : 2.80 GiB (14%)
Title : DTS-HD Master Audio / 5.1 / 48 kHz / 3163 kbps / 24-bit
Language : English
Default : Yes
Forced : No

Text #1
ID : 3
Format : UTF-8
Codec ID : S_TEXT/UTF8
Codec ID/Info : UTF-8 Plain Text
Duration : 1 h 59 min
Bit rate : 79 b/s
Count of elements : 2271
Stream size : 69.6 KiB (0%)
Language : English
Default : No
Forced : No

Text #2
ID : 4
Format : UTF-8
Codec ID : S_TEXT/UTF8
Codec ID/Info : UTF-8 Plain Text
Duration : 1 h 59 min
Bit rate : 87 b/s
Count of elements : 2489
Stream size : 77.1 KiB (0%)
Title : SDH
Language : English
Default : No
Forced : No

Text #3
ID : 5
Format : UTF-8
Codec ID : S_TEXT/UTF8
Codec ID/Info : UTF-8 Plain Text
Duration : 2 h 5 min
Bit rate : 66 b/s
Count of elements : 1939
Stream size : 60.7 KiB (0%)
Title : Canadian
Language : French
Default : No
Forced : No

Text #4
ID : 6
Format : UTF-8
Codec ID : S_TEXT/UTF8
Codec ID/Info : UTF-8 Plain Text
Duration : 2 h 5 min
Bit rate : 76 b/s
Count of elements : 2075
Stream size : 70.2 KiB (0%)
Language : Indonesian
Default : No
Forced : No

Text #5
ID : 7
Format : UTF-8
Codec ID : S_TEXT/UTF8
Codec ID/Info : UTF-8 Plain Text
Duration : 2 h 5 min
Bit rate : 69 b/s
Count of elements : 2063
Stream size : 63.9 KiB (0%)
Language : Malay
Default : No
Forced : No

Text #6
ID : 8
Format : UTF-8
Codec ID : S_TEXT/UTF8
Codec ID/Info : UTF-8 Plain Text
Duration : 2 h 5 min
Bit rate : 179 b/s
Count of elements : 2090
Stream size : 165 KiB (0%)
Language : Thai
Default : No
Forced : No

Text #7
ID : 9
Format : UTF-8
Codec ID : S_TEXT/UTF8
Codec ID/Info : UTF-8 Plain Text
Duration : 2 h 5 min
Bit rate : 66 b/s
Count of elements : 2088
Stream size : 61.3 KiB (0%)
Language : 中文
Default : No
Forced : No

Menu
00:00:00.000 : en:Chapter 01
00:03:31.044 : en:Chapter 02
00:07:37.290 : en:Chapter 03
00:14:47.303 : en:Chapter 04
00:21:36.462 : en:Chapter 05
00:22:46.949 : en:Chapter 06
00:25:51.675 : en:Chapter 07
00:32:18.854 : en:Chapter 08
00:40:06.696 : en:Chapter 09
00:45:47.662 : en:Chapter 10
00:50:21.227 : en:Chapter 11
00:58:48.859 : en:Chapter 12
01:04:50.011 : en:Chapter 13
01:11:28.576 : en:Chapter 14
01:16:55.611 : en:Chapter 15
01:23:39.264 : en:Chapter 16
01:33:23.056 : en:Chapter 17
01:41:12.525 : en:Chapter 18
01:43:02.176 : en:Chapter 19
01:47:07.212 : en:Chapter 20
01:50:47.975 : en:Chapter 21
01:52:09.890 : en:Chapter 22
01:59:36.044 : en:Chapter 23
02:00:32.058 : en:Chapter 24



迅雷下载资源速度为零或资源敏感被和谐时,推荐使用qBittorrent等下载软件,有条件的推荐115更好的下载软件!

下载地址

游客,如果您要查看本帖隐藏内容请回复

游客,如果您要查看本帖隐藏内容请回复

游客,如果您要查看本帖隐藏内容请回复





.









上一篇:呼朋引伴 / C'mon C'mon (2021) 4K高清版本下载
下一篇:狼 / Wolf (2021) 4K高清版本下载
回复

使用道具 举报

201

主题

1695

帖子

4645

积分

4K家园VIP

Rank: 9Rank: 9Rank: 9

积分
4645
发表于 2021-12-23 20:21:06 | 显示全部楼层
怎么这么大,希望我电视能看啊
回复 支持 反对

使用道具 举报

0

主题

2

帖子

9

积分

新手上路

Rank: 1

积分
9
发表于 2021-12-23 22:18:07 | 显示全部楼层
好人一生平安
回复 支持 反对

使用道具 举报

0

主题

7280

帖子

1万

积分

4K家园VIP

Rank: 9Rank: 9Rank: 9

积分
16651
发表于 2021-12-23 22:31:04 | 显示全部楼层
太好啦&萬分感謝版主的無私發佈分享%
回复 支持 反对

使用道具 举报

0

主题

5

帖子

41

积分

新手上路

Rank: 1

积分
41
发表于 2021-12-24 08:51:54 | 显示全部楼层
xiexiela
回复

使用道具 举报

3

主题

1248

帖子

3762

积分

4K家园VIP

Rank: 9Rank: 9Rank: 9

积分
3762
发表于 2021-12-25 02:54:36 来自手机 | 显示全部楼层
纯粹路过,没任何兴趣,仅仅是看在老用户份上回复一下
回复 支持 反对

使用道具 举报

0

主题

290

帖子

1145

积分

注册会员

Rank: 2

积分
1145
发表于 2021-12-25 21:10:36 | 显示全部楼层

Test, just a test

Hello. And Bye.
回复 支持 反对

使用道具 举报

0

主题

290

帖子

1145

积分

注册会员

Rank: 2

积分
1145
发表于 2021-12-25 21:11:15 | 显示全部楼层

Test, just a test


Hello. And Bye.
回复 支持 反对

使用道具 举报

0

主题

290

帖子

1145

积分

注册会员

Rank: 2

积分
1145
发表于 2021-12-25 21:11:55 | 显示全部楼层

Test, just a test

gdlmxyq ??? 2021-12-23 22:31
???&?????????????%

Hello. And Bye.
回复 支持 反对

使用道具 举报

1

主题

1303

帖子

3731

积分

4K家园VIP

Rank: 9Rank: 9Rank: 9

积分
3731
发表于 2021-12-25 21:48:38 | 显示全部楼层
感谢分享
回复 支持 反对

使用道具 举报

您需要登录后才可以回帖 登录 | 立即注册

本版积分规则

精彩图文
Archiver|手机版|TAG|Sitemap|新帖|专题|联系我们:邮箱: 4kjia.com@gmail.com   

4k家园   ©2019