[4K MV] 2021 IU - 草莓月亮 4k [2160P/MP4/807MB]

[复制链接]

2664

主题

2998

帖子

2万

积分

超级版主

Rank: 8Rank: 8

积分
25020
 楼主| 发表于 2021-12-24 21:47:08 | 显示全部楼层 |阅读模式
本帖最后由 叽里呱啦 于 2021-12-26 14:21 编辑

IU - Strawberry Moon.mp4_20211224_212613.424.jpg IU - Strawberry Moon.mp4_20211224_212625.608.jpg IU - Strawberry Moon.mp4_20211224_212701.857.jpg IU - Strawberry Moon.mp4_20211224_212744.960.jpg IU - Strawberry Moon.mp4_20211224_212800.808.jpg IU - Strawberry Moon.mp4_20211224_212824.041.jpg
General
Complete name                  : E:\4K@MV\IU - 草莓月亮(2021).mp4
Format                         : MPEG-4
Format profile                 : Base Media / Version 2
Codec ID                       : mp42 (mp42/mp41)
File size                      : 807 MiB
Duration                       : 3 min 39 s
Overall bit rate mode          : Variable
Overall bit rate               : 30.8 Mb/s
Encoded date                   : UTC 2021-10-18 03:47:36
Tagged date                    : UTC 2021-10-18 03:47:45
TIM                            : 00:00:00:00
TSC                            : 24000
TSZ                            : 1001

Video
ID                             : 1
Format                         : AVC
Format/Info                    : Advanced Video Codec
Format profile                 : Main@L5.1
Format settings                : CABAC / 3 Ref Frames
Format settings, CABAC         : Yes
Format settings, Reference fra : 3 frames
Format settings, GOP           : M=1, N=30
Codec ID                       : avc1
Codec ID/Info                  : Advanced Video Coding
Duration                       : 3 min 39 s
Bit rate                       : 30.4 Mb/s
Width                          : 3 840 pixels
Height                         : 2 160 pixels
Display aspect ratio           : 16:9
Frame rate mode                : Constant
Frame rate                     : 23.976 (24000/1001) FPS
Color space                    : YUV
Chroma subsampling             : 4:2:0
Bit depth                      : 8 bits
Scan type                      : Progressive
Bits/(Pixel*Frame)             : 0.153
Stream size                    : 798 MiB (99%)
Language                       : English
Encoded date                   : UTC 2021-10-18 03:47:36
Tagged date                    : UTC 2021-10-18 03:47:36
Codec configuration box        : avcC

Audio
ID                             : 2
Format                         : AAC LC
Format/Info                    : Advanced Audio Codec Low Complexity
Codec ID                       : mp4a-40-2
Duration                       : 3 min 39 s
Source duration                : 3 min 39 s
Bit rate mode                  : Variable
Bit rate                       : 317 kb/s
Maximum bit rate               : 372 kb/s
Channel(s)                     : 2 channels
Channel layout                 : L R
Sampling rate                  : 48.0 kHz
Frame rate                     : 46.875 FPS (1024 SPF)
Compression mode               : Lossy
Stream size                    : 8.32 MiB (1%)
Source stream size             : 8.32 MiB (1%)
Language                       : English
Encoded date                   : UTC 2021-10-18 03:47:36
Tagged date                    : UTC 2021-10-18 03:47:36

网盘下载失效不补:链接: https://pan.baidu.com/s/144J7iaggzVq11R2P6RJDsA 提取码:
****此区域为收费内容****    需支付 25 金币后可查看立即购买

提供更多【4K、8K、16K(25-120fps)】高品质MV、演示片等珍藏版视频,需要的联系本楼主




上一篇:[4K MV] 2021 Golden Child - Breathe (Choreography ver.) 4k [2160P/MP4/436MB]
下一篇:[4K MV] 2021 TRI.BE - 你会跑吗(4K珍藏) [2160P/MP4/1.39GB]
回复

使用道具 举报

47

主题

1435

帖子

4097

积分

4K家园VIP

Rank: 9Rank: 9Rank: 9

积分
4097
发表于 2021-12-24 21:47:13 | 显示全部楼层
看起来不错
回复 支持 反对

使用道具 举报

1

主题

1327

帖子

3997

积分

4K家园VIP

Rank: 9Rank: 9Rank: 9

积分
3997
发表于 2021-12-25 03:21:07 | 显示全部楼层
看起来不错
回复 支持 反对

使用道具 举报

5

主题

1326

帖子

3830

积分

中级会员

Rank: 4

积分
3830
发表于 2021-12-25 12:02:13 来自手机 | 显示全部楼层
边撸边过
回复 支持 反对

使用道具 举报

0

主题

11

帖子

2394

积分

注册会员

Rank: 2

积分
2394
发表于 2021-12-25 12:17:08 | 显示全部楼层
谢谢分享
回复

使用道具 举报

4

主题

1272

帖子

3836

积分

4K家园VIP

Rank: 9Rank: 9Rank: 9

积分
3836
发表于 2021-12-25 12:18:14 | 显示全部楼层
怎么这么大,希望我电视能看啊
回复 支持 反对

使用道具 举报

2

主题

1669

帖子

4599

积分

4K家园VIP

Rank: 9Rank: 9Rank: 9

积分
4599
发表于 2021-12-25 17:31:07 | 显示全部楼层
多发些资源啊
回复 支持 反对

使用道具 举报

0

主题

15

帖子

5724

积分

4K家园VIP

Rank: 9Rank: 9Rank: 9

积分
5724
发表于 2021-12-26 11:38:11 | 显示全部楼层
呃,分享过期了。
回复 支持 反对

使用道具 举报

0

主题

4

帖子

82

积分

4K家园VIP

Rank: 9Rank: 9Rank: 9

积分
82
发表于 2021-12-26 23:04:15 | 显示全部楼层
shixiaole
回复

使用道具 举报

1

主题

23

帖子

4257

积分

4K家园VIP

Rank: 9Rank: 9Rank: 9

积分
4257
发表于 2021-12-27 12:30:15 | 显示全部楼层
失效了,说文件已过期
回复 支持 反对

使用道具 举报

您需要登录后才可以回帖 登录 | 立即注册

本版积分规则

精彩图文
Archiver|手机版|TAG|Sitemap|新帖|专题|联系我们:邮箱: 4kjia.com@gmail.com   

4k家园   ©2019