无限恩典有限公司 (2019) / 第一季全10集 /4K高清版本下载

[复制链接]

66

主题

79

帖子

763

积分

版主

Rank: 7Rank: 7Rank: 7

积分
763
 楼主| 发表于 2021-12-25 15:45:17 | 显示全部楼层 |阅读模式

p2568327714_副本.jpg

◎译  名 无限恩典有限公司 / 行骗 / Our Lady, LTD
◎片  名 Perpetual Grace, LTD
◎年  代 2021
◎产  地 美国
◎类  别 剧情
◎语  言 英语
◎上映日期 2019-06-02(美国)
◎IMDb评分  7.6/10 from 2563 users
◎IMDb链接  https://www.imdb.com/title/tt8912384/
◎豆瓣评分 8.3/10 from 1868 users
◎豆瓣链接 https://movie.douban.com/subject/30313348/
◎集  数 10
◎片  长 53分钟
◎导  演 斯蒂夫·康拉德 / 吉姆·惠特克
◎编  剧 斯蒂夫·康拉德 / 布鲁斯·特瑞斯
◎主  演 本·金斯利
                     吉米·辛普森
                     杰基·韦佛
                     路易斯·古兹曼
                     达什·威廉姆斯
                     克里斯·康拉德
                     达娜·德洛伦佐
                     达蒙·海瑞曼
                     伊莉安娜·亚历山大
                     阿隆索·阿尔瓦雷斯
                     迈克尔·切鲁斯
                     马塞达利亚·弗洛雷斯



◎简  介

  本·金斯利将主演Epix新剧《Our Lady, LTD》,共10集,史蒂夫·康拉德(《爱国者》《奇迹男孩》)打造,今秋开拍,明年播出。讲述一个年轻骗子詹姆斯尝试找牧师Byron Brown(金斯利)下手,却发现后者远比自己想象中要更危险。康拉德和《爱国者》的搭档Bruce Terris编写剧本并担任运作人、执行制片人,康拉德执导其中6集。
General
Complete name                  : E:\4K2美剧\Perpetual.Grace.LTD.S01E01.2160p.WEB-DL.DDP5.1.HEVC-NTb.mkv
Format                         : Matroska
Format version                 : Version 4
File size                      : 496 MiB
Duration                       : 53 min 34 s
Overall bit rate               : 1 294 kb/s
Writing application            : mkvmerge v58.0.0 ('Supper's Ready') 64-bit
Writing library                : libebml v1.4.2 + libmatroska v1.6.4
IsTruncated                    : Yes

Video
ID                             : 1
Format                         : HEVC
Format/Info                    : High Efficiency Video Coding
Format profile                 : Main 10@L5@High
Codec ID                       : V_MPEGH/ISO/HEVC
Duration                       : 53 min 34 s
Bit rate                       : 628 kb/s
Width                          : 2 724 pixels
Height                         : 1 350 pixels
Display aspect ratio           : 2.018
Frame rate mode                : Constant
Frame rate                     : 23.976 FPS
Color space                    : YUV
Chroma subsampling             : 4:2:0
Bit depth                      : 10 bits
Bits/(Pixel*Frame)             : 0.007
Stream size                    : 241 MiB (49%)
Default                        : Yes
Forced                         : No
Color range                    : Limited
Color primaries                : BT.709
Transfer characteristics       : BT.709
Matrix coefficients            : BT.709

Audio
ID                             : 2
Format                         : E-AC-3
Format/Info                    : Enhanced AC-3
Commercial name                : Dolby Digital Plus
Codec ID                       : A_EAC3
Duration                       : 53 min 34 s
Bit rate mode                  : Constant
Bit rate                       : 640 kb/s
Channel(s)                     : 6 channels
Channel layout                 : L R C LFE Ls Rs
Sampling rate                  : 48.0 kHz
Frame rate                     : 31.250 FPS (1536 SPF)
Compression mode               : Lossy
Stream size                    : 245 MiB (49%)
Language                       : English
Service kind                   : Complete Main
Default                        : Yes
Forced                         : No

Text #1
ID                             : 3
Format                         : UTF-8
Codec ID                       : S_TEXT/UTF8
Codec ID/Info                  : UTF-8 Plain Text
Language                       : English
Default                        : No
Forced                         : No

Text #2
ID                             : 4
Format                         : UTF-8
Codec ID                       : S_TEXT/UTF8
Codec ID/Info                  : UTF-8 Plain Text
Title                          : SDH
Language                       : English
Default                        : No
Forced                         : No



下载地址

****此区域为收费内容****    需支付 9 金币后可查看立即购买





.

上一篇:之前的女孩 /The Girl Before (2021) / 第一季全4集 /4K高清版本下载
下一篇:游客 / The Tourist (2022) / 第一季全6集/4K高清版本下载
回复

使用道具 举报

1

主题

1308

帖子

3952

积分

4K家园VIP

Rank: 9Rank: 9Rank: 9

积分
3952
发表于 2021-12-25 15:45:33 | 显示全部楼层
看帖要回,回帖才健康,在踩踩,楼主辛苦了!
回复 支持 反对

使用道具 举报

0

主题

11

帖子

69

积分

4K家园VIP

Rank: 9Rank: 9Rank: 9

积分
69
发表于 2021-12-25 17:05:27 | 显示全部楼层
怎么样才能看到啊
回复 支持 反对

使用道具 举报

0

主题

7236

帖子

1万

积分

4K家园VIP

Rank: 9Rank: 9Rank: 9

积分
16568
发表于 2021-12-25 18:18:02 | 显示全部楼层
太好啦&萬分感謝版主的無私發佈分享%
回复 支持 反对

使用道具 举报

2

主题

1330

帖子

3856

积分

4K家园VIP

Rank: 9Rank: 9Rank: 9

积分
3856
发表于 2021-12-25 21:39:04 | 显示全部楼层
为了三千积分!
回复 支持 反对

使用道具 举报

48

主题

1558

帖子

4488

积分

4K家园VIP

Rank: 9Rank: 9Rank: 9

积分
4488
发表于 2021-12-26 00:30:04 | 显示全部楼层
回复 支持 反对

使用道具 举报

0

主题

11

帖子

69

积分

4K家园VIP

Rank: 9Rank: 9Rank: 9

积分
69
发表于 2021-12-26 15:21:49 | 显示全部楼层
怎么才能看呢
回复 支持 反对

使用道具 举报

3

主题

1370

帖子

3936

积分

4K家园VIP

Rank: 9Rank: 9Rank: 9

积分
3936
发表于 2021-12-26 15:55:13 | 显示全部楼层
看帖要回,回帖才健康,在踩踩,楼主辛苦了!
回复 支持 反对

使用道具 举报

3

主题

1352

帖子

3902

积分

4K家园VIP

Rank: 9Rank: 9Rank: 9

积分
3902
发表于 2021-12-27 23:38:12 | 显示全部楼层
支持楼主,用户楼主,楼主英明呀!!!
回复 支持 反对

使用道具 举报

您需要登录后才可以回帖 登录 | 立即注册

本版积分规则

精彩图文
Archiver|手机版|TAG|Sitemap|新帖|专题|联系我们:邮箱: 4kjia.com@gmail.com   

4k家园   ©2019