[4K电影] 胧镜 / Through the Glass Darkly (2020) 4K高清版本下载

[复制链接]

2664

主题

2998

帖子

2万

积分

超级版主

Rank: 8Rank: 8

积分
25020
 楼主| 发表于 2021-12-27 10:26:46 | 显示全部楼层 |阅读模式
QQ图片20211227102158_副本.png

◎译  名 胧镜
◎片  名 Through the Glass Darkly
◎年  代 2020
◎产  地 美国
◎类  别 剧情 / 惊悚 / 同性
◎语  言 英语
◎上映日期 2020-10-15(圣地亚哥国际电影节)
◎IMDb评分  6.3/10 from 888 users
◎IMDb链接  https://www.imdb.com/title/tt5585272/
◎豆瓣评分 0/10 from 0 users
◎豆瓣链接 https://movie.douban.com/subject/35382797/
◎片  长 103分钟
◎编  剧 苏珊·格拉汉姆 Susan Graham
◎主  演 罗宾·莱弗里 Robyn Lively
      迈克尔·特鲁科 Michael Trucco
      珊诺拉·汉普顿 Shanola Hampton
      朱迪思·爱薇 Judith Ivey
      卡特琳娜·诺曼 Katrina Norman
      克里·卡希尔 Kerry Cahill
      贝瑟妮·安妮·林德 Bethany Anne Lind
      尼古拉斯·罗根 Nicholas Logan
      文斯·福斯特 Vince Foster
      乔伊·雅各布森 Joy Jacobson
      佐伊·迈尔斯 Zoe Myers
      安德鲁·马希特 Andrew Masset



◎简  介

  查理的女儿失踪一年后,乔治亚州埃尔罗德的另一个女孩失踪了。查理确信两者之间有联系,她不遗余力地揭露了这件事最具破坏性和最黑暗的秘密,因而招致了当地执法部门和市民的怀疑和蔑视。
Video
ID : 1
Format : HEVC
Format/Info : High Efficiency Video Coding
Format profile : Main@L5@Main
Codec ID : V_MPEGH/ISO/HEVC
Duration : 1 h 43 min
Bit rate : 14.9 Mb/s
Width : 3 840 pixels
Height : 2 160 pixels
Display aspect ratio : 16:9
Frame rate mode : Constant
Frame rate : 23.976 (24000/1001/189150) FPS
Color space : YUV
Chroma subsampling : 4:2:0
Bit depth : 8 bits
Bits/(Pixel*Frame) : 0.075
Stream size : 10.8 GiB (97%)
Writing library : x265 3.5hy:[Linux][GCC 7.5.0][64 bit] 8bit
Encoding settings : cpuid=1111039 / frame-threads=2 / wpp / no-pmode / no-pme / no-psnr / no-ssim / log-level=2 / input-csp=1 / input-res=3840x2160 / interlace=0 / total-frames=0 / level-idc=0 / high-tier=1 / uhd-bd=0 / ref=4 / no-allow-non-conformance / repeat-headers / annexb / aud / hrd / info / hash=0 / no-temporal-layers / no-open-gop / min-keyint=48 / keyint=48 / gop-lookahead=0 / bframes=4 / b-adapt=2 / b-pyramid / bframe-bias=0 / rc-lookahead=48 / lookahead-slices=4 / scenecut=0 / hist-scenecut=0 / radl=0 / no-splice / no-intra-refresh / ctu=64 / min-cu-size=8 / rect / no-amp / max-tu-size=32 / tu-inter-depth=1 / tu-intra-depth=1 / limit-tu=0 / rdoq-level=2 / dynamic-rd=0.00 / no-ssim-rd / signhide / no-tskip / nr-intra=100 / nr-inter=200 / no-constrained-intra / strong-intra-smoothing / max-merge=3 / limit-refs=3 / limit-modes / me=3 / subme=3 / merange=57 / temporal-mvp / no-frame-dup / no-hme / weightp / no-weightb / no-analyze-src-pics / deblock=0:0 / no-sao / no-sao-non-deblock / rd=4 / selective-sao=0 / no-early-skip / no-rskip / no-fast-intra / no-tskip-fast / no-cu-lossless / no-b-intra / no-splitrd-skip / rdpenalty=0 / psy-rd=0.00 / psy-rdoq=10.00 / no-rd-refine / no-lossless / cbqpoffs=0 / crqpoffs=0 / rc=abr / bitrate=15000 / qcomp=0.60 / qpstep=1 / stats-write=0 / stats-read=2 / cplxblur=20.0 / qblur=0.5 / vbv-maxrate=18000 / vbv-bufsize=12000 / vbv-init=0.6 / min-vbv-fullness=50.0 / max-vbv-fullness=80.0 / vbv-end=0.6 / vbv-end-fr-adj=0.0 / ipratio=1.10 / pbratio=1.00 / aq-mode=0 / aq-strength=0.00 / no-cutree / zone-count=0 / no-strict-cbr / qg-size=32 / rc-grain / qpmax=69 / qpmin=0 / const-vbv / sar=0 / overscan=0 / videoformat=5 / range=0 / colorprim=1 / transfer=1 / colormatrix=1 / chromaloc=0 / display-window=0 / cll=0,0 / min-luma=0 / max-luma=255 / log2-max-poc-lsb=8 / vui-timing-info / vui-hrd-info / no-concatenation / slices=1 / no-opt-qp-pps / no-opt-ref-list-length-pps / no-multi-pass-opt-rps / scenecut-bias=0.05 / hist-threshold=0.03 / no-opt-cu-delta-qp / no-aq-motion / no-hdr10 / no-hdr10-opt / no-dhdr10-opt / no-idr-recovery-sei / analysis-reuse-level=0 / analysis-save-reuse-level=0 / analysis-load-reuse-level=0 / scale-factor=0 / refine-intra=0 / refine-inter=0 / refine-mv=1 / refine-ctu-distortion=0 / no-limit-sao / ctu-info=0 / no-lowpass-dct / refine-analysis-type=0 / copy-pic=1 / max-ausize-factor=1.0 / no-dynamic-refine / no-single-sei / no-hevc-aq / no-svt / no-field / qp-adaptation-range=1.00 / scenecut-aware-qp=0conformance-window-offsets / right=0 / bottom=0 / decoder-max-rate=0 / no-vbv-live-multi-pass
Default : Yes
Forced : No
Color range : Limited
Color primaries : BT.709
Transfer characteristics : BT.709
Matrix coefficients : BT.709

Audio
ID : 2
Format : AC-3
Format/Info : Audio Coding 3
Commercial name : Dolby Digital
Codec ID : A_AC3
Duration : 1 h 43 min
Bit rate mode : Constant
Bit rate : 384 kb/s
Channel(s) : 6 channels
Channel layout : L R C LFE Ls Rs
Sampling rate : 48.0 kHz
Frame rate : 31.250 FPS (1536 SPF)
Compression mode : Lossy
Stream size : 284 MiB (3%)
Language : English
Service kind : Complete Main
Default : Yes
Forced : No

Text
ID : 3
Format : UTF-8
Codec ID : S_TEXT/UTF8
Codec ID/Info : UTF-8 Plain Text
Duration : 1 h 40 min
Bit rate : 68 b/s
Count of elements : 1721
Stream size : 50.5 KiB (0%)
Language : English
Default : No
Forced : No

迅雷下载资源速度为零或资源敏感被和谐时,推荐使用qBittorrent等下载软件,有条件的推荐115更好的下载软件!


下载地址

游客,如果您要查看本帖隐藏内容请回复



.

上一篇:古董局中局之国画密码(国语中字)(2021) 4K高清版本下载
下一篇:虫虫危机(内封繁体中字) / A Bug's Life (1998) 4K高清版本下载
回复

使用道具 举报

2

主题

1363

帖子

3939

积分

4K家园VIP

Rank: 9Rank: 9Rank: 9

积分
3939
发表于 2021-12-27 10:26:50 | 显示全部楼层
回复 支持 反对

使用道具 举报

5

主题

1601

帖子

4423

积分

中级会员

Rank: 4

积分
4423
发表于 2021-12-27 11:12:08 | 显示全部楼层
顶顶更健康
回复 支持 反对

使用道具 举报

57

主题

1498

帖子

4350

积分

4K家园VIP

Rank: 9Rank: 9Rank: 9

积分
4350
发表于 2021-12-27 11:42:07 | 显示全部楼层
向楼主学习
回复 支持 反对

使用道具 举报

53

主题

1205

帖子

3681

积分

4K家园VIP

Rank: 9Rank: 9Rank: 9

积分
3681
发表于 2021-12-27 12:01:10 来自手机 | 显示全部楼层
看帖要回,回帖才健康,在踩踩,楼主辛苦了!
回复 支持 反对

使用道具 举报

0

主题

7280

帖子

1万

积分

4K家园VIP

Rank: 9Rank: 9Rank: 9

积分
16651
发表于 2021-12-27 12:06:39 | 显示全部楼层
太好啦&萬分感謝版主的無私發佈分享%
回复 支持 反对

使用道具 举报

0

主题

1300

帖子

3926

积分

4K家园VIP

Rank: 9Rank: 9Rank: 9

积分
3926
发表于 2021-12-27 12:27:18 | 显示全部楼层
都不知道说的啥
回复 支持 反对

使用道具 举报

0

主题

1

帖子

6

积分

新手上路

Rank: 1

积分
6
发表于 2021-12-27 21:22:16 | 显示全部楼层

向楼主学习
回复 支持 反对

使用道具 举报

您需要登录后才可以回帖 登录 | 立即注册

本版积分规则

精彩图文
Archiver|手机版|TAG|Sitemap|新帖|专题|联系我们:邮箱: 4kjia.com@gmail.com   

4k家园   ©2019