[4K电影] 虫虫危机(内封繁体中字) / A Bug's Life (1998) 4K高清版本下载

[复制链接]

1339

主题

1444

帖子

1万

积分

超级版主

Rank: 8Rank: 8

积分
11232
 楼主| 发表于 2021-12-27 12:53:23 | 显示全部楼层 |阅读模式
本帖最后由 最爱4K哟 于 2021-12-29 11:28 编辑

p2590538892.webp_副本.jpg

◎译  名 虫虫危机/虫虫特工队(港)
◎片  名 A Bug's Life
◎年  代 1998
◎产  地 美国
◎类  别 喜剧/动画/冒险
◎语  言 英语
◎上映日期 1998-11-25(美国)
◎IMDb评分  7.2/10 from 280614 users
◎IMDb链接  https://www.imdb.com/title/tt0120623
◎豆瓣评分 7.9/10 from 78165 users
◎豆瓣链接 https://douban.com/subject/1291573/
◎片  长 95 分钟
◎导  演 约翰·拉塞特 John Lasseter / 安德鲁·斯坦顿 Andrew Stanton
◎编  剧 安德鲁·斯坦顿 Andrew Stanton / 唐·麦肯内里 Don McEnery / 鲍勃·肖 Bob Shaw / 大卫·雷诺兹 David Reynolds / Bob Shaw
◎主  演 大卫·弗利 Dave Foley
       凯文·史派西 Kevin Spacey
       茱莉亚·路易斯-德瑞弗斯 Julia Louis-Dreyfus
       海顿·潘妮蒂尔 Hayden Panettiere
       李·昂克里奇 Lee Unkrich
       Rosalinde Mynster
       比尔·法玛尔 Bill Farmer
       Sam Gifaldi
       胡立成 Licheng Hu


◎简  介


  菲力在蚂蚁王国里并不怎么受欢迎,尽管他发明了先进的收割机,然而阴差阳错,他竟然惹了大祸,公主妹妹小不点因此被蝗虫敌人捉去,而且蚂蚁的粮食也受到了蝗虫的威胁。即使菲力救出了小不点,但还是被赶出蚂蚁王国。只有他在外面的世界找到了对付蝗虫的办法,才有可能回到家园。

  菲力在城市中遇到了马戏团的一队昆虫。爬虫、蝴蝶、瓢虫、臭虫,他们都似乎身怀绝技,令菲力十分兴奋,于是菲力把他们请回蚂蚁王国对付蝗虫。一场恶战即将开始,昆虫们愈战愈勇,和菲力一同投入到斗争中。智勇双全的菲力也终于回到了蚂蚁王国中,受到大伙儿的赞赏。


◎获奖情况

  第71届奥斯卡金像奖  (1999)
  音乐/喜剧片最佳原创配乐(提名) 兰迪·纽曼

  第56届金球奖  (1999)
  电影类最佳原创配乐(提名) 兰迪·纽曼

  第53届英国电影学院奖  (2000)
  电影奖最佳特殊视觉效果(提名) EbenOstby / BillReeves / RickSayre / 莎朗·卡拉汉

  第27届动画安妮奖  (1999)
  最佳动画长片(提名)
  最佳导演(提名) 安德鲁·斯坦顿 / 约翰·拉塞特
  最佳编剧(提名) 唐·麦肯内里 / 安德鲁·斯坦顿 / BobShaw / 约翰·拉塞特 / 乔·兰福特
  最佳艺术指导(提名) WilliamCone

General
Complete name                  : H:\4K@电影\A.Bugs.Life.1998.2160p.WEB-DL.TrueHD.Atmos.7.1.DV.HEVC-NOSiViD.mkv
Format                         : Matroska
Format version                 : Version 4
File size                      : 21.5 GiB
Duration                       : 1 h 34 min
Overall bit rate mode          : Variable
Overall bit rate               : 32.4 Mb/s
Movie name                     : A Bugs Life (1998)
Encoded date                   : UTC 2021-12-05 09:52:15
Writing application            : mkvmerge v63.0.0 ('Everything') 64-bit
Writing library                : libebml v1.4.2 + libmatroska v1.6.4
IMDB                           : tt0120623
TMDB                           : movie/9487

Video
ID                             : 1
Format                         : HEVC
Format/Info                    : High Efficiency Video Coding
Format profile                 : Main 10@L5@High
HDR format                     : Dolby Vision, Version 1.0, dvhe.05.06, BL+RPU
Codec ID                       : V_MPEGH/ISO/HEVC
Duration                       : 1 h 34 min
Bit rate                       : 23.5 Mb/s
Width                          : 3 840 pixels
Height                         : 1 640 pixels
Original height                : 1 634 pixels
Display aspect ratio           : 2.35:1
Original display aspect ratio  : 2.35:1
Frame rate mode                : Constant
Frame rate                     : 23.976 (24000/1001) FPS
Color space                    : YUV
Chroma subsampling             : 4:2:0
Bit depth                      : 10 bits
Bits/(Pixel*Frame)             : 0.156
Stream size                    : 15.6 GiB (73%)
Default                        : Yes
Forced                         : No

Audio #1
ID                             : 2
Format                         : MLP FBA 16-ch
Format/Info                    : Meridian Lossless Packing FBA with 16-channel presentation
Commercial name                : Dolby TrueHD with Dolby Atmos
Codec ID                       : A_TRUEHD
Duration                       : 1 h 34 min
Bit rate mode                  : Variable
Bit rate                       : 8 178 kb/s
Maximum bit rate               : 8 088 kb/s
Channel(s)                     : 8 channels
Channel layout                 : L R C LFE Ls Rs Lb Rb
Sampling rate                  : 48.0 kHz
Frame rate                     : 1 200.000 FPS (40 SPF)
Compression mode               : Lossless
Delay relative to video        : 460 ms
Stream size                    : 5.42 GiB (25%)
Title                          : TrueHD Atmos 7.1
Language                       : English
Default                        : Yes
Forced                         : No
Number of dynamic objects      : 13
Bed channel count              : 1 channel
Bed channel configuration      : LFE

Audio #2
ID                             : 3
Format                         : AC-3
Format/Info                    : Audio Coding 3
Commercial name                : Dolby Digital
Format settings                : Dolby Surround EX
Codec ID                       : A_AC3
Duration                       : 1 h 34 min
Bit rate mode                  : Constant
Bit rate                       : 640 kb/s
Channel(s)                     : 6 channels
Channel layout                 : L R C LFE Ls Rs
Sampling rate                  : 48.0 kHz
Frame rate                     : 31.250 FPS (1536 SPF)
Compression mode               : Lossy
Delay relative to video        : 460 ms
Stream size                    : 434 MiB (2%)
Title                          : AC3-EX 5.1
Language                       : English
Service kind                   : Complete Main
Default                        : No
Forced                         : No

Text #1
ID                             : 4
Format                         : UTF-8
Codec ID                       : S_TEXT/UTF8
Codec ID/Info                  : UTF-8 Plain Text
Duration                       : 1 h 32 min
Bit rate                       : 67 b/s
Count of elements              : 1448
Stream size                    : 45.5 KiB (0%)
Language                       : English
Default                        : No
Forced                         : No

Text #2
ID                             : 5
Format                         : UTF-8
Codec ID                       : S_TEXT/UTF8
Codec ID/Info                  : UTF-8 Plain Text
Duration                       : 1 h 34 min
Bit rate                       : 74 b/s
Count of elements              : 1690
Stream size                    : 51.8 KiB (0%)
Title                          : SDH
Language                       : English
Default                        : No
Forced                         : No

Text #3
ID                             : 6
Format                         : UTF-8
Codec ID                       : S_TEXT/UTF8
Codec ID/Info                  : UTF-8 Plain Text
Duration                       : 1 h 31 min
Bit rate                       : 113 b/s
Count of elements              : 1217
Stream size                    : 76.1 KiB (0%)
Language                       : Arabic
Default                        : No
Forced                         : No

Text #4
ID                             : 7
Format                         : UTF-8
Codec ID                       : S_TEXT/UTF8
Codec ID/Info                  : UTF-8 Plain Text
Duration                       : 1 h 30 min
Bit rate                       : 59 b/s
Count of elements              : 1719
Stream size                    : 39.2 KiB (0%)
Title                          : 中文(繁体)
Language                       : 中文
Default                        : No
Forced                         : No


Text #5
ID                             : 8
Format                         : UTF-8
Codec ID                       : S_TEXT/UTF8
Codec ID/Info                  : UTF-8 Plain Text
Duration                       : 1 h 30 min
Bit rate                       : 63 b/s
Count of elements              : 1216
Stream size                    : 41.9 KiB (0%)
Title                          : Latin American
Language                       : Spanish
Default                        : No
Forced                         : No

Text #6
ID                             : 9
Format                         : UTF-8
Codec ID                       : S_TEXT/UTF8
Codec ID/Info                  : UTF-8 Plain Text
Duration                       : 1 h 31 min
Bit rate                       : 57 b/s
Count of elements              : 1098
Stream size                    : 38.4 KiB (0%)
Language                       : Finnish
Default                        : No
Forced                         : No

Text #7
ID                             : 10
Format                         : UTF-8
Codec ID                       : S_TEXT/UTF8
Codec ID/Info                  : UTF-8 Plain Text
Duration                       : 1 h 30 min
Bit rate                       : 54 b/s
Count of elements              : 1249
Stream size                    : 36.3 KiB (0%)
Language                       : French
Default                        : No
Forced                         : No

Text #8
ID                             : 11
Format                         : UTF-8
Codec ID                       : S_TEXT/UTF8
Codec ID/Info                  : UTF-8 Plain Text
Duration                       : 1 h 30 min
Bit rate                       : 99 b/s
Count of elements              : 1218
Stream size                    : 65.8 KiB (0%)
Language                       : Hebrew
Default                        : No
Forced                         : No

Text #9
ID                             : 12
Format                         : UTF-8
Codec ID                       : S_TEXT/UTF8
Codec ID/Info                  : UTF-8 Plain Text
Duration                       : 1 h 30 min
Bit rate                       : 56 b/s
Count of elements              : 1162
Stream size                    : 37.0 KiB (0%)
Language                       : Indonesian
Default                        : No
Forced                         : No

Text #10
ID                             : 13
Format                         : UTF-8
Codec ID                       : S_TEXT/UTF8
Codec ID/Info                  : UTF-8 Plain Text
Duration                       : 1 h 30 min
Bit rate                       : 42 b/s
Count of elements              : 996
Stream size                    : 27.9 KiB (0%)
Language                       : Dutch
Default                        : No
Forced                         : No

Text #11
ID                             : 14
Format                         : UTF-8
Codec ID                       : S_TEXT/UTF8
Codec ID/Info                  : UTF-8 Plain Text
Duration                       : 1 h 30 min
Bit rate                       : 121 b/s
Count of elements              : 1218
Stream size                    : 80.3 KiB (0%)
Language                       : Thai
Default                        : No
Forced                         : No

Text #12
ID                             : 15
Format                         : UTF-8
Codec ID                       : S_TEXT/UTF8
Codec ID/Info                  : UTF-8 Plain Text
Duration                       : 1 h 30 min
Bit rate                       : 56 b/s
Count of elements              : 1196
Stream size                    : 37.2 KiB (0%)
Language                       : Turkish
Default                        : No
Forced                         : No

Text #13
ID                             : 16
Format                         : UTF-8
Codec ID                       : S_TEXT/UTF8
Codec ID/Info                  : UTF-8 Plain Text
Duration                       : 1 h 32 min
Bit rate                       : 111 b/s
Count of elements              : 1356
Stream size                    : 75.6 KiB (0%)
Language                       : Ukrainian
Default                        : No
Forced                         : No

Menu
00:00:00.460                   : en:Main Titles
00:04:29.604                   : en:Flik's Invention
00:07:53.099                   : en:Red Alert
00:09:53.094                   : en:The Grasshoppers Arrive
00:15:19.753                   : en:On Trial
00:17:20.290                   : eneaving Ant Island
00:18:56.887                   : en:Flik's Flight
00:20:05.622                   : en.T. Flea's Circus
00:26:09.069                   : en:The City
00:27:50.045                   : en:Bug Bar
00:31:30.265                   : en:Flying Home
00:32:44.130                   : en:The Warriors Arrive
00:35:58.491                   : en:Official Welcome
00:39:43.340                   : en:"Squish Me Now"
00:41:27.736                   : en:A Bird Attacks
00:45:09.500                   : en:Francis The Hero
00:45:50.749                   : en:Atta's Apology
00:47:17.794                   : en:Flik's Plan
00:49:14.453                   : en:Building The Bird
00:52:51.753                   : en:Hopper's Hideout
00:56:37.103                   : en:The Celebration
00:58:50.320                   : en.T. Arrives
01:02:25.076                   : en:The Grasshoppers Return
01:04:28.115                   : en:To The Clubhouse
01:05:31.304                   : enot Goes For Help
01:06:48.130                   : en:Turning Back
01:10:02.741                   : en:Grasshoppers Occupation
01:10:50.205                   : en:Showtime
01:15:16.388                   : en:Flik's Bird Attacks
01:17:30.439                   : en:Flik vs. Hopper
01:20:01.423                   : en:Ant Battle
01:21:14.037                   : en:Rain
01:23:06.566                   : en:Hopper's Demise
01:24:17.053                   : en:Springtime
01:28:31.474                   : en:End Credits
01:29:57.059                   : en:Outtakes

迅雷下载资源速度为零或资源敏感被和谐时,推荐使用qBittorrent等下载软件,有条件的推荐115更好的下载软件!

下载地址

游客,如果您要查看本帖隐藏内容请回复

游客,如果您要查看本帖隐藏内容请回复






.


上一篇:胧镜 / Through the Glass Darkly (2020) 4K高清版本下载
下一篇:勇敢传说(内封繁体中字) / Brave (2012) 4K高清版本下载
回复

使用道具 举报

0

主题

1340

帖子

4034

积分

4K家园VIP

Rank: 9Rank: 9Rank: 9

积分
4034
发表于 2021-12-27 12:53:30 | 显示全部楼层
我也顶起出售广告位
回复 支持 反对

使用道具 举报

2

主题

1374

帖子

4142

积分

4K家园VIP

Rank: 9Rank: 9Rank: 9

积分
4142
发表于 2021-12-27 20:07:08 | 显示全部楼层
无论是不是沙发都得回复下
回复 支持 反对

使用道具 举报

51

主题

1374

帖子

3954

积分

4K家园VIP

Rank: 9Rank: 9Rank: 9

积分
3954
发表于 2021-12-27 20:10:37 来自手机 | 显示全部楼层
我是个凑数的。。。
回复 支持 反对

使用道具 举报

53

主题

1205

帖子

3681

积分

4K家园VIP

Rank: 9Rank: 9Rank: 9

积分
3681
发表于 2021-12-27 20:24:08 | 显示全部楼层
好像还可以
回复 支持 反对

使用道具 举报

1

主题

1382

帖子

3954

积分

4K家园VIP

Rank: 9Rank: 9Rank: 9

积分
3954
发表于 2021-12-27 21:01:44 | 显示全部楼层
1v1飘过
回复 支持 反对

使用道具 举报

您需要登录后才可以回帖 登录 | 立即注册

本版积分规则

精彩图文
Archiver|手机版|TAG|Sitemap|新帖|专题|联系我们:邮箱: 4kjia.com@gmail.com   

4k家园   ©2019