[4K电影] 赛车总动员 / Cars (2006) 4K高清版本下载

[复制链接]

1323

主题

1428

帖子

1万

积分

超级版主

Rank: 8Rank: 8

积分
11131
 楼主| 发表于 2021-12-27 13:14:55 | 显示全部楼层 |阅读模式
p2598019367_副本.jpg

◎译  名 赛车总动员/小汽车的故事/飞车正传/反斗车王(港)/汽车总动员
◎片  名 Cars
◎年  代 2006
◎产  地 美国
◎类  别 喜剧/动画/冒险
◎语  言 英语/意大利语/日语/依地语
◎上映日期 2006-06-09(美国)/2006-08-22(中国大陆)
◎IMDb评分  7.1/10 from 359,005 users
◎IMDb链接  https://www.imdb.com/title/tt0317219/
◎豆瓣评分 7.9/10 from 142623 users
◎豆瓣链接 https://douban.com/subject/1428878/
◎片  长 117分钟
◎导  演 约翰·拉塞特 John Lasseter / 乔·兰福特 Joe Ranft
◎编  剧 约翰·拉塞特 John Lasseter / 乔·兰福特 Joe Ranft / 乔根·克卢宾 Jorgen Klubien / 丹·福格尔曼 Dan Fogelman / 基尔·默里 Kiel Murray / 菲尔·洛林 Phil Lorin / 史蒂夫·波赛尔 Steve Purcell / 唐·雷克 Don Lake / 罗伯特·L·贝尔德 Robert L. Baird / 布兰达∙查普曼 Brenda Chapman / 邦尼·亨特 Bonnie Hunt / 丹尼尔·吉尔森 Daniel Gerson
◎主  演 欧文·威尔逊 Owen Wilson
       保罗·纽曼 Paul Newman
       邦尼·亨特 Bonnie Hunt
       王牌接线员拉里 Larry The Cable Guy
       切奇·马林 Cheech Marin
       托尼·夏尔赫布 Tony Shalhoub
       盖多·克隆尼 Guido Quaroni
       詹妮弗·路易斯 Jenifer Lewis
       保罗·杜利 Paul Dooley
       迈克尔·沃利斯 Michael Wallis
       乔治·卡林 George Carlin
       凯瑟琳·海蒙德 Katherine Helmond
       约翰·拉岑贝格 John Ratzenberger
       乔·兰福特 Joe Ranft
       迈克尔·基顿 Michael Keaton
       伊迪·麦克勒格 Edie McClurg
       安德鲁·斯坦顿 Andrew Stanton
       小戴尔·恩哈特 Dale Earnhardt Jr.
       迈克尔·舒马赫 Michael Schumacher
       杰·雷诺 Jay Leno
       乔纳斯·里维拉 Jonas Rivera
       卢·罗曼诺 Lou Romano
       艾丽莎·奈特 Elissa Knight
       林赛·柯林斯 Lindsey Collins
       Stephen Schaffer
       鲍勃·彼德森 Bob Peterson
       杰斯·哈梅尔 Jess Harnell
       泰迪·牛顿 Teddy Newton
       约翰·古德曼 John Goodman
       蒂姆·艾伦 Tim Allen
       杰里米·皮文 Jeremy Piven
       比尔·法玛尔 Bill Farmer
       Konishi Sonoko
       雪莉·琳恩 Sherry Lynn
       户田惠子 Keiko Toda
       黄磊 Lei Huang
       雪儿·克劳 Sheryl Crow
       吉姆·瓦德 Jim Ward
       理查德·佩蒂 Richard Petty
       詹妮弗·达林 Jennifer Darling
       杰里米·克拉克森 Jeremy Clarkson
       鲍勃·科斯塔斯 Bob Costas
       罗德格尔·邦帕斯 Rodger Bumpass
       鲍伯·伯根 Bob Bergen
       苏珊·布卢 Susan Blu
       迈克尔·贝尔 Michael Bell
       马里奥·安德烈蒂 Mario Andretti
       大卫·弗利 Dave Foley
       汤姆·汉克斯 Tom Hanks
       保罗·伊丁 Paul Eiding
       特蕾莎·甘泽尔 Teresa Ganzel
       比利·克里斯托 Billy Crystal
       托宾·赞·布洛克 Torbin Xan Bullock
       达雷尔·沃尔特里普 Darrell Waltrip
       Craig Good
       拉瑞恩·纽曼 Laraine Newman
       科琳·欧肖内希 Colleen O'Shaughnessey
       杰克·安杰尔 Jack Angel ?  

       理查德·坎德 Richard Kind



◎简  介


  汽车世界中,一年一度的活塞杯再次拉开序幕。红色跑车“闪电”麦坤和“冠军”、“路霸”是冠军最有力的竞争者。作为新人,麦坤具有极高的天赋,同时也是一个目空一切的家伙。经过紧张激烈的对抗,这三辆车同时冲过终点线。由于无法判定最终优胜者,组委会决定一个月后在加州洛杉矶召开一次只有这三辆车参加的殊死战,只有最后的胜者才能捧得活塞杯。


  信心满满麦坤和搭档拖车麦大叔早早启程。但是长时间的疲劳驾驶,令麦大叔不慎将麦坤丢在半路。麦坤东闯西撞,无意间来到了被众车遗忘的油车水镇。因躲避警长的追捕,麦坤毁坏了小镇的马路。在法官哈迪逊韩大夫和律师保时捷莎莉的裁决下,他被迫留在这里修路。短短几天相处,麦坤和小镇的居民渐渐融洽起来,同时他也爱上了美丽的莎莉。只不过,路终有修完的时候,未完的比赛仍在等待着他……

◎获奖情况

  第79届奥斯卡金像奖  (2007)
  最佳动画长片(提名) 约翰·拉塞特
  最佳原创歌曲(提名) 兰迪·纽曼

  第64届金球奖  (2007)
  电影类最佳动画长片

  第34届动画安妮奖  (2007)
  最佳动画长片
  最佳导演(提名) 约翰·拉塞特
  最佳编剧(提名) 丹·福格尔曼
  最佳配乐 兰迪·纽曼
  最佳艺术指导(提名) 威廉·科恩
  最佳动画角色(提名) 卡洛斯·巴埃纳 / BobbyPodesta
  最佳动画效果(提名) 基斯·丹尼尔·克隆 / ErdemTaylan
General
Complete name                  : H:\4K@电影\Cars.2006.2160p.WEB-DL.TrueHD.Atmos.7.1.DV.HEVC-NOSiViD.mkv
Format                         : Matroska
Format version                 : Version 4
File size                      : 25.2 GiB
Duration                       : 1 h 56 min
Overall bit rate mode          : Variable
Overall bit rate               : 30.9 Mb/s
Movie name                     : Cars (2006)
Encoded date                   : UTC 2021-12-05 10:22:59
Writing application            : mkvmerge v63.0.0 ('Everything') 64-bit
Writing library                : libebml v1.4.2 + libmatroska v1.6.4
IMDB                           : tt0317219
TMDB                           : movie/920

Video
ID                             : 1
Format                         : HEVC
Format/Info                    : High Efficiency Video Coding
Format profile                 : Main 10@L5@High
HDR format                     : Dolby Vision, Version 1.0, dvhe.05.06, BL+RPU
Codec ID                       : V_MPEGH/ISO/HEVC
Duration                       : 1 h 56 min
Bit rate                       : 23.1 Mb/s
Width                          : 3 840 pixels
Height                         : 1 608 pixels
Original height                : 1 606 pixels
Display aspect ratio           : 2.40:1
Original display aspect ratio  : 2.40:1
Frame rate mode                : Constant
Frame rate                     : 23.976 (24000/1001) FPS
Color space                    : YUV
Chroma subsampling             : 4:2:0
Bit depth                      : 10 bits
Bits/(Pixel*Frame)             : 0.156
Stream size                    : 18.8 GiB (75%)
Default                        : Yes
Forced                         : No

Audio #1
ID                             : 2
Format                         : MLP FBA 16-ch
Format/Info                    : Meridian Lossless Packing FBA with 16-channel presentation
Commercial name                : Dolby TrueHD with Dolby Atmos
Codec ID                       : A_TRUEHD
Duration                       : 1 h 56 min
Bit rate mode                  : Variable
Bit rate                       : 7 098 kb/s
Maximum bit rate               : 9 315 kb/s
Channel(s)                     : 8 channels
Channel layout                 : L R C LFE Ls Rs Lb Rb
Sampling rate                  : 48.0 kHz
Frame rate                     : 1 200.000 FPS (40 SPF)
Compression mode               : Lossless
Stream size                    : 5.79 GiB (23%)
Title                          : TrueHD Atmos 7.1
Language                       : English
Default                        : Yes
Forced                         : No
Number of dynamic objects      : 13
Bed channel count              : 1 channel
Bed channel configuration      : LFE

Audio #2
ID                             : 3
Format                         : AC-3
Format/Info                    : Audio Coding 3
Commercial name                : Dolby Digital
Format settings                : Dolby Surround EX
Codec ID                       : A_AC3
Duration                       : 1 h 56 min
Bit rate mode                  : Constant
Bit rate                       : 640 kb/s
Channel(s)                     : 6 channels
Channel layout                 : L R C LFE Ls Rs
Sampling rate                  : 48.0 kHz
Frame rate                     : 31.250 FPS (1536 SPF)
Compression mode               : Lossy
Stream size                    : 534 MiB (2%)
Title                          : AC3-EX 5.1
Language                       : English
Service kind                   : Complete Main
Default                        : No
Forced                         : No

Text #1
ID                             : 4
Format                         : UTF-8
Codec ID                       : S_TEXT/UTF8
Codec ID/Info                  : UTF-8 Plain Text
Duration                       : 1 h 55 min
Bit rate                       : 67 b/s
Count of elements              : 1756
Stream size                    : 57.3 KiB (0%)
Language                       : English
Default                        : No
Forced                         : No

Text #2
ID                             : 5
Format                         : UTF-8
Codec ID                       : S_TEXT/UTF8
Codec ID/Info                  : UTF-8 Plain Text
Duration                       : 1 h 55 min
Bit rate                       : 75 b/s
Count of elements              : 2050
Stream size                    : 64.1 KiB (0%)
Title                          : SDH
Language                       : English
Default                        : No
Forced                         : No

Text #3
ID                             : 6
Format                         : UTF-8
Codec ID                       : S_TEXT/UTF8
Codec ID/Info                  : UTF-8 Plain Text
Duration                       : 1 h 55 min
Bit rate                       : 57 b/s
Count of elements              : 1407
Stream size                    : 48.2 KiB (0%)
Title                          : Latin American
Language                       : Spanish
Default                        : No
Forced                         : No

Menu
00:00:00.000                   : eninoco 400
00:09:37.572                   : en:Victory Lane
00:13:48.156                   : en:Rust-Eze
00:16:19.181                   : en:"Life Is a Highway"
00:19:52.811                   : enost
00:24:32.925                   : enost
00:27:26.515                   : en:Where's Mcqueen?
00:28:12.102                   : en:The Impound
00:29:41.483                   : en:Traffic Court
00:33:57.405                   : en:Bessie
00:35:53.229                   : en:Customers!
00:41:50.503                   : enoc's Challenge
00:45:55.915                   : en:A New Road
00:48:40.371                   : en:Turn Right to Go Left
00:50:38.822                   : en:Back to Work
00:54:40.147                   : en:Tractor Tipping
00:57:47.542                   : en:Backwards Driving
01:01:28.763                   : en:Goodnight
01:02:58.436                   : enoc's Piston Cups
01:05:42.600                   : en:Breakfast at Flo's
01:07:42.637                   : enrive with Sally
01:09:49.138                   : en:Wheel Well
01:11:27.069                   : en:"Our Town"
01:15:01.075                   : en:Stampede
01:15:57.631                   : enoc Races
01:20:13.971                   : en:He's Gone
01:22:21.515                   : en:A New Customer
01:24:58.547                   : en:Cruisin'
01:27:31.575                   : en:Mcqueen Is Found
01:32:36.838                   : en:California Race
01:46:17.449                   : en:Back on the Map
01:48:31.291                   : en:Epilogue



迅雷下载资源速度为零或资源敏感被和谐时,推荐使用qBittorrent等下载软件,有条件的推荐115更好的下载软件!

下载地址

游客,如果您要查看本帖隐藏内容请回复




.

上一篇:勇敢传说(内封繁体中字) / Brave (2012) 4K高清版本下载
下一篇:赛车总动员3:极速挑战 / Cars 3 (2017) 4K高清版本下载
回复

使用道具 举报

50

主题

1456

帖子

4140

积分

4K家园VIP

Rank: 9Rank: 9Rank: 9

积分
4140
发表于 2021-12-27 13:15:02 | 显示全部楼层
正需要
回复 支持 反对

使用道具 举报

51

主题

1435

帖子

4209

积分

4K家园VIP

Rank: 9Rank: 9Rank: 9

积分
4209
发表于 2021-12-27 16:55:41 来自手机 | 显示全部楼层
顶顶更健康
回复 支持 反对

使用道具 举报

3

主题

1370

帖子

3936

积分

4K家园VIP

Rank: 9Rank: 9Rank: 9

积分
3936
发表于 2021-12-28 13:39:55 | 显示全部楼层
怎么这么大,希望我电视能看啊
回复 支持 反对

使用道具 举报

2

主题

1267

帖子

3819

积分

4K家园VIP

Rank: 9Rank: 9Rank: 9

积分
3819
发表于 2022-1-1 12:27:29 | 显示全部楼层
楼猪V5啊
回复 支持 反对

使用道具 举报

1

主题

1565

帖子

4299

积分

4K家园VIP

Rank: 9Rank: 9Rank: 9

积分
4299
发表于 2022-1-7 13:55:22 | 显示全部楼层
感谢推荐,确实不错
回复 支持 反对

使用道具 举报

您需要登录后才可以回帖 登录 | 立即注册

本版积分规则

精彩图文
Archiver|手机版|TAG|Sitemap|新帖|专题|联系我们:邮箱: 4kjia.com@gmail.com   

4k家园   ©2019