[4K电影] 寻梦环游记 / Coco (2017) 4K高清版本下载

[复制链接]

1339

主题

1444

帖子

1万

积分

超级版主

Rank: 8Rank: 8

积分
11232
 楼主| 发表于 2021-12-27 15:26:16 | 显示全部楼层 |阅读模式
本帖最后由 最爱4K哟 于 2021-12-29 16:40 编辑

p2529661702_副本.jpg

◎译  名 寻梦环游记/可可夜总会(台)/玩转极乐园(港)/亡灵总动员(豆友译名)/祖宗总动员(豆友译名)/墨西哥亡灵节/可可
◎片  名 Coco
◎年  代 2017
◎产  地 美国
◎类  别 喜剧/动画/冒险/音乐/家庭
◎语  言 英语/西班牙语
◎上映日期 2017-10-20(莫雷利亚电影节)/2017-11-22(美国)/2017-11-24(中国大陆)
◎IMDb评分  8.6/10 from 99,108 users
◎IMDb链接  http://www.imdb.com/title/tt2380307/
◎豆瓣评分 9.1/10 from 415,467 users
◎豆瓣链接 https://movie.douban.com/subject/20495023/
◎片  长 105分钟
◎导  演 李·昂克里奇 Lee Unkrich / 阿德里安·莫利纳 Adrian Molina
◎主  演 安东尼·冈萨雷斯 Anthony Gonzalez
      盖尔·加西亚·贝纳尔 Gael García Bernal
      本杰明·布拉特 Benjamin Bratt
      阿兰纳·乌巴奇 Alanna Ubach
      芮妮·维克托 Renée Victor
      杰米·卡米尔 Jaime Camil
      阿方索·阿雷奥 Alfonso Arau
      赫伯特·西古恩萨 Herbert Siguenza
      加布里埃尔·伊格莱西亚斯 Gabriel Iglesias
      隆巴多·博伊尔 Lombardo Boyar
      安娜·奥菲丽亚·莫吉亚 Ana Ofelia Murguía
      娜塔丽·科尔多瓦 Natalia Cordova
      赛琳娜·露娜 Selene Luna
      爱德华·詹姆斯·奥莫斯 Edward James Olmos
      索菲亚·伊斯皮诺萨 Sofía Espinosa
      卡拉·梅迪纳 Carla Medina
      黛娅娜·欧特里 Dyana Ortelli
      路易斯·瓦尔德斯 Luis Valdez
      布兰卡·阿拉切利 Blanca Araceli
      萨尔瓦多·雷耶斯 Salvador Reyes
      切奇·马林 Cheech Marin
      奥克塔维·索利斯 Octavio Solis
      约翰·拉岑贝格 John Ratzenberger

◎简  介

  热爱音乐的米格尔(安东尼·冈萨雷兹 Anthony Gonzalez 配音)不幸地出生在一个视音乐为洪水猛兽的大家庭之中,一家人只盼着米格尔快快长大,好继承家里传承了数代的制鞋产业。一年一度的亡灵节即将来临,每逢这一天,去世的亲人们的魂魄便可凭借着摆在祭坛上的照片返回现世和生者团圆。
  在一场意外中,米格尔竟然穿越到了亡灵国度之中,在太阳升起之前,他必须得到一位亲人的祝福,否则就将会永远地留在这个世界里。米格尔决定去寻找已故的歌神德拉库斯(本杰明·布拉特 Benjamin Bratt 配音),因为他很有可能就是自己的祖父。途中,米格尔邂逅了落魄乐手埃克托(盖尔·加西亚·贝纳尔 Gael García Bernal 配音),也渐渐发现了德拉库斯隐藏已久的秘密。

◎获奖情况

  第90届奥斯卡金像奖 ?(2018)
  最佳动画长片(提名) 达拉·K·安德森?/?李·昂克里奇
  最佳原创歌曲(提名) 克里斯汀·安德森·洛佩兹?/?罗伯特·洛佩兹

  第75届金球奖 ?(2018)
  电影类 最佳动画长片
  电影类 最佳原创歌曲(提名)

  第71届英国电影学院奖 ?(2018)
  电影奖 最佳动画片(提名)

  第45届动画安妮奖 ?(2018)
  最佳动画长片
  最佳导演 阿德里安·莫利纳?/?李·昂克里奇
  最佳编剧 阿德里安·莫利纳?/?马修·奥尔德里奇
  最佳配音 安东尼·冈萨雷斯
  最佳配乐 迈克·吉亚奇诺
  最佳剪辑 蒂姆·福克斯?/?格雷戈·斯奈德?/?史蒂夫·布卢姆?/?李·昂克里奇
  最佳分镜 迪恩·凯利
  最佳分镜(提名) 玛德琳·莎拉芬
  最佳艺术指导 哈雷·杰斯普?/?Bryn Imagire
  最佳动画角色 约翰·春·赵·李
  最佳动画角色(提名) 艾莉森·拉特兰德
  最佳角色设计 克雷格·但科斯塔
  最佳动画效果

  第29届美国制片人工会奖 ?(2018)
  最佳动画片制片人奖

  第68届美国剪辑工会奖 ?(2018)
  动画片最佳剪辑 史蒂夫·布卢姆

  第22届美国艺术指导工会奖 ?(2018)
  电影奖 最佳动画电影艺术指导

  第16届美国视觉效果协会奖 ?(2018)
  最佳动画电影视觉效果(提名)
  最佳动画电影CG动画角色(提名)
  最佳动画电影CG背景(提名)
  最佳动画电影模拟动画效果(提名)

  第54届美国声音效果协会奖 ?(2018)
  动画电影最佳音效(提名)

  第83届纽约影评人协会奖 ?(2017)
  最佳动画片

  第89届美国国家评论协会奖 ?(2017)
  最佳动画片 阿德里安·莫利纳?/?李·昂克里奇

  第23届美国评论家选择电影奖 ?(2018)
  最佳动画片
  最佳歌曲

  第22届金卫星奖 ?(2018)
  电影部门 最佳动画片(提名)
  电影部门 最佳音效(提名)

  第16届华盛顿影评人协会奖 ?(2017)
  最佳动画片
  最佳配音 安东尼·冈萨雷斯

  第38届波士顿影评人协会奖 ?(2017)
  最佳动画片

  第4届豆瓣电影年度榜单 ?(2017)
  最受关注的院线电影(提名)
  评分最高的动画片
  年度电影原声(提名)
  11月最受关注电影


General
Complete name                  : H:\4K@电影\Coco.2017.2160p.WEB-DL.TrueHD.Atmos.7.1.DV.HEVC-NOSiViD.mkv
Format                         : Matroska
Format version                 : Version 4
File size                      : 23.0 GiB
Duration                       : 1 h 45 min
Overall bit rate mode          : Variable
Overall bit rate               : 31.4 Mb/s
Movie name                     : Coco (2017)
Encoded date                   : UTC 2021-12-05 10:29:25
Writing application            : mkvmerge v63.0.0 ('Everything') 64-bit
Writing library                : libebml v1.4.2 + libmatroska v1.6.4
IMDB                           : tt2380307
TMDB                           : movie/354912

Video
ID                             : 1
Format                         : HEVC
Format/Info                    : High Efficiency Video Coding
Format profile                 : Main 10@L5@High
HDR format                     : Dolby Vision, Version 1.0, dvhe.05.06, BL+RPU
Codec ID                       : V_MPEGH/ISO/HEVC
Duration                       : 1 h 45 min
Bit rate                       : 24.3 Mb/s
Width                          : 3 840 pixels
Height                         : 1 608 pixels
Display aspect ratio           : 2.40:1
Frame rate mode                : Constant
Frame rate                     : 23.976 (24000/1001) FPS
Color space                    : YUV
Chroma subsampling             : 4:2:0
Bit depth                      : 10 bits
Bits/(Pixel*Frame)             : 0.164
Stream size                    : 17.8 GiB (77%)
Default                        : Yes
Forced                         : No

Audio #1
ID                             : 2
Format                         : MLP FBA 16-ch
Format/Info                    : Meridian Lossless Packing FBA with 16-channel presentation
Commercial name                : Dolby TrueHD with Dolby Atmos
Codec ID                       : A_TRUEHD
Duration                       : 1 h 45 min
Bit rate mode                  : Variable
Bit rate                       : 6 435 kb/s
Maximum bit rate               : 8 217 kb/s
Channel(s)                     : 8 channels
Channel layout                 : L R C LFE Ls Rs Lb Rb
Sampling rate                  : 48.0 kHz
Frame rate                     : 1 200.000 FPS (40 SPF)
Compression mode               : Lossless
Stream size                    : 4.72 GiB (20%)
Title                          : TrueHD Atmos 7.1
Language                       : English
Default                        : Yes
Forced                         : No
Number of dynamic objects      : 13
Bed channel count              : 1 channel
Bed channel configuration      : LFE

Audio #2
ID                             : 3
Format                         : AC-3
Format/Info                    : Audio Coding 3
Commercial name                : Dolby Digital
Codec ID                       : A_AC3
Duration                       : 1 h 45 min
Bit rate mode                  : Constant
Bit rate                       : 640 kb/s
Channel(s)                     : 6 channels
Channel layout                 : L R C LFE Ls Rs
Sampling rate                  : 48.0 kHz
Frame rate                     : 31.250 FPS (1536 SPF)
Compression mode               : Lossy
Delay relative to video        : 2 ms
Stream size                    : 481 MiB (2%)
Title                          : AC-3 5.1
Language                       : English
Service kind                   : Complete Main
Default                        : No
Forced                         : No

Text #1
ID                             : 4
Format                         : UTF-8
Codec ID                       : S_TEXT/UTF8
Codec ID/Info                  : UTF-8 Plain Text
Duration                       : 1 h 37 min
Bit rate                       : 64 b/s
Count of elements              : 1384
Stream size                    : 45.9 KiB (0%)
Language                       : English
Default                        : No
Forced                         : No

Text #2
ID                             : 5
Format                         : UTF-8
Codec ID                       : S_TEXT/UTF8
Codec ID/Info                  : UTF-8 Plain Text
Duration                       : 1 h 38 min
Bit rate                       : 78 b/s
Count of elements              : 1722
Stream size                    : 56.6 KiB (0%)
Title                          : SDH
Language                       : English
Default                        : No
Forced                         : No

Text #3
ID                             : 6
Format                         : UTF-8
Codec ID                       : S_TEXT/UTF8
Codec ID/Info                  : UTF-8 Plain Text
Duration                       : 1 h 34 min
Bit rate                       : 62 b/s
Count of elements              : 1114
Stream size                    : 43.4 KiB (0%)
Title                          : Latin American
Language                       : Spanish
Default                        : No
Forced                         : No

Menu
00:00:00.000                   : en:Chapter 01
00:06:38.986                   : en:Chapter 02
00:08:40.691                   : en:Chapter 03
00:11:12.759                   : en:Chapter 04
00:14:19.237                   : en:Chapter 05
00:17:06.070                   : en:Chapter 06
00:18:19.727                   : en:Chapter 07
00:22:05.161                   : en:Chapter 08
00:24:19.128                   : en:Chapter 09
00:27:43.999                   : en:Chapter 10
00:29:07.082                   : en:Chapter 11
00:32:14.436                   : en:Chapter 12
00:35:17.202                   : en:Chapter 13
00:41:24.694                   : en:Chapter 14
00:47:03.783                   : en:Chapter 15
00:50:53.346                   : en:Chapter 16
00:54:23.055                   : en:Chapter 17
00:56:44.196                   : en:Chapter 18
01:01:41.785                   : en:Chapter 19
01:03:27.307                   : en:Chapter 20
01:08:57.387                   : en:Chapter 21
01:15:16.432                   : en:Chapter 22
01:18:55.943                   : en:Chapter 23
01:21:30.931                   : en:Chapter 24
01:24:30.986                   : en:Chapter 25
01:28:22.509                   : en:Chapter 26
01:33:13.842                   : en:Chapter 27
01:36:09.351                   : en:Chapter 28

迅雷下载资源速度为零或资源敏感被和谐时,推荐使用qBittorrent等下载软件,有条件的推荐115更好的下载软件!

下载地址

游客,如果您要查看本帖隐藏内容请回复

游客,如果您要查看本帖隐藏内容请回复




.




上一篇:赛车总动员3:极速挑战 / Cars 3 (2017) 4K高清版本下载
下一篇:敦刻尔克(内封简繁中字) / Dunkirk (2017) 4K高清版本下载
回复

使用道具 举报

46

主题

1427

帖子

4117

积分

4K家园VIP

Rank: 9Rank: 9Rank: 9

积分
4117
发表于 2021-12-27 15:26:25 来自手机 | 显示全部楼层
very good
回复 支持 反对

使用道具 举报

40

主题

1510

帖子

4320

积分

4K家园VIP

Rank: 9Rank: 9Rank: 9

积分
4320
发表于 2021-12-28 12:16:40 | 显示全部楼层
都不知道说的啥
回复 支持 反对

使用道具 举报

3

主题

1248

帖子

3762

积分

4K家园VIP

Rank: 9Rank: 9Rank: 9

积分
3762
发表于 2021-12-28 13:15:46 来自手机 | 显示全部楼层
试试先,好用再说
回复 支持 反对

使用道具 举报

3

主题

1370

帖子

3936

积分

4K家园VIP

Rank: 9Rank: 9Rank: 9

积分
3936
发表于 2021-12-28 13:34:03 来自手机 | 显示全部楼层
不错 支持一个了
回复 支持 反对

使用道具 举报

66

主题

1511

帖子

4347

积分

4K家园VIP

Rank: 9Rank: 9Rank: 9

积分
4347
发表于 2021-12-29 15:21:07 | 显示全部楼层
广告位,,坐下看看
回复 支持 反对

使用道具 举报

0

主题

21

帖子

119

积分

4K家园VIP

Rank: 9Rank: 9Rank: 9

积分
119
发表于 4 天前 | 显示全部楼层
不错 支持一个了
回复 支持 反对

使用道具 举报

您需要登录后才可以回帖 登录 | 立即注册

本版积分规则

精彩图文
Archiver|手机版|TAG|Sitemap|新帖|专题|联系我们:邮箱: 4kjia.com@gmail.com   

4k家园   ©2019