[4K电影] 超人总动员2 / Incredibles 2 (2018) 4K高清版本下载

[复制链接]

1323

主题

1428

帖子

1万

积分

超级版主

Rank: 8Rank: 8

积分
11131
 楼主| 发表于 2021-12-27 16:23:48 | 显示全部楼层 |阅读模式
本帖最后由 最爱4K哟 于 2021-12-29 16:48 编辑

p2539366405.webp_副本.jpg

◎译  名 超人总动员2/超人家族2/超人特工队2(港)/超人特攻队2(台)
◎片  名 Incredibles 2
◎年  代 2018
◎产  地 美国
◎类  别 喜剧 / 动作 / 动画 / 冒险
◎语  言 英语
◎上映日期 2018-06-15(美国) / 2018-06-22(中国大陆)
◎IMDb评分 7.6/10 from 242094 users
◎IMDb链接 https://www.imdb.com/title/tt3606756/
◎豆瓣评分 7.9/10 from 220360 users
◎豆瓣链接 https://movie.douban.com/subject/25849049/
◎片  长 118分钟
◎导  演 布拉德·伯德 Brad Bird
◎编  剧 布拉德·伯德 Brad Bird
◎主  演 格雷格·T·尼尔森 Craig T. Nelson
      霍利·亨特 Holly Hunter
      莎拉·沃威尔 Sarah Vowell
      赫克·米尔纳 Huck Milner
      伊莱·富西尔 Eli Fucile
      凯瑟琳·基纳 Catherine Keener
      塞缪尔·杰克逊 Samuel L. Jackson
      伊莎贝拉·罗西里尼 Isabella Rossellini
      鲍勃·奥登科克 Bob Odenkirk
      布拉德·伯德 Brad Bird
      索菲亚·布什 Sophia Bush
      乔纳森·班克斯 Jonathan Banks
      约翰·拉岑贝格 John Ratzenberger
      金伯利·阿代尔·克拉克 Kimberly Adair Clark
      托亚·特纳 Toya Turner
      杨千嬅 Miriam Yeung


◎简  介

  在一次挖地超人制造的大混乱中,超人家庭大力神巴鲍伯(格雷格·T·尼尔森 Craig T. Nelson配音)和弹力女超人巴荷莉(霍利·亨特 Holly Hunter 配音)和他们的子女巴小倩(莎拉·沃威尔 Sarah Vowell 配音)、巴小飞(赫克·米尔纳 Huck Milner 配音)使出浑身解数,然而不仅不能抓住狡猾的敌人,而且还因为对城市破坏太大而导致失去了政府的支持。此后不久,电信集团大亨温斯顿·狄弗(鲍勃·奥登科克 Bob Odenkirk 配音)通过酷冰侠鲁休斯(塞缪尔·杰克逊 Samuel L. Jackson 配音)找到鲍伯一家,希望将该公司的前沿技术应用到超人身上,更好地维护世界和平。可是狄弗只希望雇佣荷莉,偏偏荷莉大展雄风,成为了所有超人族群的偶像,这可令担任奶爸的鲍伯心有不甘。

  而就在此时,神秘对手悄然出现,似乎正试图摧毁荷莉他们所建立的新和平……

◎获奖情况

  第91届奥斯卡金像奖 ?(2019)
  最佳动画长片(提名) 妮可·帕拉迪斯·格林德尔?/?布拉德·伯德?/?约翰·沃克

  第76届金球奖 ?(2019)
  电影类最佳动画长片(提名)

  第72届英国电影学院奖 ?(2019)
  电影奖最佳动画片(提名)

  第46届动画安妮奖 ?(2019)
  最佳动画长片(提名)
  最佳导演(提名) 布拉德·伯德
  最佳编剧(提名) 布拉德·伯德
  最佳配音(提名) 霍利·亨特
  最佳配乐
  最佳剪辑(提名)
  最佳分镜
  最佳动画角色(提名)
  最佳角色设计(提名)
  最佳动画效果(提名)

  第61届日本电影蓝丝带奖 ?(2019)
  年度十佳海外影片

  第30届美国制片人工会奖 ?(2019)
  最佳动画片制片人奖(提名)

  第69届美国剪辑工会奖 ?(2019)
  动画片最佳剪辑(提名) 斯蒂芬·沙弗

  第23届美国艺术指导工会奖 ?(2019)
  电影奖最佳动画电影艺术指导(提名) 拉夫·埃格尔斯顿

  第66届美国音效剪辑协会奖 ?(2019)
  金卷轴奖最佳动画片音效剪辑(提名)

  第17届美国视觉效果协会奖 ?(2019)
  最佳动画电影视觉效果(提名)
  最佳动画电影CG动画角色(提名)
  最佳动画电影CG背景(提名)
  最佳电影模型(提名)
  最佳动画电影模拟动画效果(提名)

  第55届美国声音效果协会奖 ?(2019)
  动画电影最佳音效(提名)

  第90届美国国家评论协会奖 ?(2018)
  最佳动画片

  第24届美国评论家选择电影奖 ?(2019)
  最佳动画片(提名)

  第23届金卫星奖 ?(2019)
  电影部门最佳动画片(提名)

  第17届华盛顿影评人协会奖 ?(2018)
  最佳动画片(提名)
  最佳配音(提名) 霍利·亨特

  第44届洛杉矶影评人协会奖 ?(2018)
  最佳动画片(提名)

  第31届芝加哥影评人协会奖 ?(2018)
  最佳动画片(提名)

  第17届旧金山影评人协会奖 ?(2018)
  最佳动画片(提名)

  第22届美国在线影评人协会奖 ?(2019)
  最佳动画片(提名)

  第5届豆瓣电影年度榜单 ?(2018)
  评分最高的动画片(提名)

General
Complete name                  : E:\4K@电影\Incredibles.2.2018.2160p.WEB-DL.TrueHD.Atmos.7.1.DV.HEVC-NOSiViD.mkv
Format                         : Matroska
Format version                 : Version 4
File size                      : 26.3 GiB
Duration                       : 1 h 57 min
Overall bit rate mode          : Variable
Overall bit rate               : 31.9 Mb/s
Movie name                     : Incredibles 2 (2018)
Encoded date                   : UTC 2021-12-05 10:33:32
Writing application            : mkvmerge v63.0.0 ('Everything') 64-bit
Writing library                : libebml v1.4.2 + libmatroska v1.6.4
IMDB                           : tt3606756
TMDB                           : movie/260513

Video
ID                             : 1
Format                         : HEVC
Format/Info                    : High Efficiency Video Coding
Format profile                 : Main 10@L5@High
HDR format                     : Dolby Vision, Version 1.0, dvhe.05.06, BL+RPU
Codec ID                       : V_MPEGH/ISO/HEVC
Duration                       : 1 h 57 min
Bit rate                       : 24.2 Mb/s
Width                          : 3 840 pixels
Height                         : 1 608 pixels
Display aspect ratio           : 2.40:1
Frame rate mode                : Constant
Frame rate                     : 23.976 (24000/1001) FPS
Color space                    : YUV
Chroma subsampling             : 4:2:0
Bit depth                      : 10 bits
Bits/(Pixel*Frame)             : 0.163
Stream size                    : 19.9 GiB (76%)
Default                        : Yes
Forced                         : No

Audio #1
ID                             : 2
Format                         : MLP FBA 16-ch
Format/Info                    : Meridian Lossless Packing FBA with 16-channel presentation
Commercial name                : Dolby TrueHD with Dolby Atmos
Codec ID                       : A_TRUEHD
Duration                       : 1 h 57 min
Bit rate mode                  : Variable
Bit rate                       : 7 006 kb/s
Maximum bit rate               : 8 580 kb/s
Channel(s)                     : 8 channels
Channel layout                 : L R C LFE Ls Rs Lb Rb
Sampling rate                  : 48.0 kHz
Frame rate                     : 1 200.000 FPS (40 SPF)
Compression mode               : Lossless
Stream size                    : 5.77 GiB (22%)
Title                          : TrueHD Atmos 7.1
Language                       : English
Default                        : Yes
Forced                         : No
Number of dynamic objects      : 13
Bed channel count              : 1 channel
Bed channel configuration      : LFE

Audio #2
ID                             : 3
Format                         : AC-3
Format/Info                    : Audio Coding 3
Commercial name                : Dolby Digital
Codec ID                       : A_AC3
Duration                       : 1 h 57 min
Bit rate mode                  : Constant
Bit rate                       : 640 kb/s
Channel(s)                     : 6 channels
Channel layout                 : L R C LFE Ls Rs
Sampling rate                  : 48.0 kHz
Frame rate                     : 31.250 FPS (1536 SPF)
Compression mode               : Lossy
Delay relative to video        : 2 ms
Stream size                    : 539 MiB (2%)
Title                          : AC-3 5.1
Language                       : English
Service kind                   : Complete Main
Default                        : No
Forced                         : No

Text #1
ID                             : 4
Format                         : UTF-8
Codec ID                       : S_TEXT/UTF8
Codec ID/Info                  : UTF-8 Plain Text
Duration                       : 1 h 54 min
Bit rate                       : 71 b/s
Count of elements              : 1990
Stream size                    : 60.0 KiB (0%)
Language                       : English
Default                        : No
Forced                         : No

Text #2
ID                             : 5
Format                         : UTF-8
Codec ID                       : S_TEXT/UTF8
Codec ID/Info                  : UTF-8 Plain Text
Duration                       : 1 h 54 min
Bit rate                       : 82 b/s
Count of elements              : 2326
Stream size                    : 69.1 KiB (0%)
Title                          : SDH
Language                       : English
Default                        : No
Forced                         : No

Text #3
ID                             : 6
Format                         : UTF-8
Codec ID                       : S_TEXT/UTF8
Codec ID/Info                  : UTF-8 Plain Text
Duration                       : 1 h 46 min
Bit rate                       : 69 b/s
Count of elements              : 1757
Stream size                    : 54.2 KiB (0%)
Title                          : Latin American
Language                       : Spanish
Default                        : No
Forced                         : No

Menu
00:00:00.000                   : en:Tony Interrogation
00:03:21.205                   : en:Incredibles vs. Underminer
00:08:52.786                   : en:Chewed Out
00:09:35.829                   : en:Family Dinner
00:13:37.445                   : enoolside
00:15:43.780                   : eneavor Meets Supers
00:21:18.906                   : enillow Talk
00:23:27.451                   : en:New House
00:27:07.963                   : en:Where's Mom?
00:28:58.407                   : en:Runaway Train
00:35:10.070                   : en:Raccoon Fight
00:39:06.973                   : en:Helen Checks In
00:42:42.897                   : en:Tony Forgets
00:43:41.581                   : en:Air Rescue
00:47:34.522                   : en:Breakfast Blowup
00:48:52.892                   : en:Triumph Return
00:54:14.755                   : en:Vi Embarrassed
00:56:15.209                   : en:Tracking Screenslaver
01:00:57.866                   : en:Screenslaver Caught
01:02:01.054                   : en:Breaking Point
01:06:54.347                   : en:E The Babysitter
01:09:17.407                   : en:Helen Reviews Footage
01:11:27.203                   : en:Bob's Apology
01:12:36.606                   : en:Helen Slips Away
01:14:38.436                   : en:Auntie E
01:18:00.137                   : en:Cold Room
01:20:31.706                   : en:House Attack
01:25:00.933                   : en:Kids Alone
01:27:58.610                   : en:Super Signing
01:31:53.095                   : en:Kids To The Rescue
01:33:25.604                   : en:Trap Is Sprung
01:36:24.407                   : en:Battle Royale
01:37:44.362                   : en:Save The Day
01:43:55.900                   : en:Resolution
01:45:34.749                   : en:Epilogue
01:47:30.031                   : en:End Credits

迅雷下载资源速度为零或资源敏感被和谐时,推荐使用qBittorrent等下载软件,有条件的推荐115更好的下载软件!

下载地址

游客,如果您要查看本帖隐藏内容请回复

游客,如果您要查看本帖隐藏内容请回复



.


超人总动员.jpg

上一篇:海底总动员(内封繁体中字)/ Finding Nemo (2003) 4K高清版本下载
下一篇:头脑特工队 / Inside Out (2015) 4K高清版本下载
回复

使用道具 举报

37

主题

1465

帖子

4195

积分

4K家园VIP

Rank: 9Rank: 9Rank: 9

积分
4195
发表于 2021-12-27 16:23:54 | 显示全部楼层
还有没有别的资源,多分享些
回复 支持 反对

使用道具 举报

1

主题

1353

帖子

3905

积分

4K家园VIP

Rank: 9Rank: 9Rank: 9

积分
3905
发表于 2021-12-28 08:02:02 | 显示全部楼层
嘘,低调。
回复 支持 反对

使用道具 举报

2

主题

1413

帖子

4075

积分

4K家园VIP

Rank: 9Rank: 9Rank: 9

积分
4075
发表于 2021-12-28 18:36:07 | 显示全部楼层
没明白
回复 支持 反对

使用道具 举报

1

主题

1115

帖子

3365

积分

4K家园VIP

Rank: 9Rank: 9Rank: 9

积分
3365
发表于 2021-12-29 10:56:58 | 显示全部楼层
楼下的接上
回复 支持 反对

使用道具 举报

1

主题

1290

帖子

3886

积分

4K家园VIP

Rank: 9Rank: 9Rank: 9

积分
3886
发表于 2021-12-31 18:30:53 来自手机 | 显示全部楼层
感谢推荐,确实不错
回复 支持 反对

使用道具 举报

您需要登录后才可以回帖 登录 | 立即注册

本版积分规则

精彩图文
Archiver|手机版|TAG|Sitemap|新帖|专题|联系我们:邮箱: 4kjia.com@gmail.com   

4k家园   ©2019