[4K电影] 怪兽大学 / Monsters University (2013) 4K高清版本下载

[复制链接]

1339

主题

1444

帖子

1万

积分

超级版主

Rank: 8Rank: 8

积分
11232
 楼主| 发表于 2021-12-27 16:31:11 | 显示全部楼层 |阅读模式
本帖最后由 最爱4K哟 于 2021-12-29 16:56 编辑

怪兽大学.jpg

◎译  名 怪兽大学 / Monsters Inc. 2 / 怪兽公司2 / 怪兽电力公司2:怪兽大学 / 怪物公司2 / 怪物公司2:怪物大学
◎片  名 Monsters University
◎年  代 2013
◎产  地 美国
◎类  别 喜剧 / 动画 / 冒险
◎语  言 英语
◎上映日期 2013-06-21(美国) / 2013-08-23(中国大陆)
◎IMDb评分 7.3/10 from 307658 users
◎IMDb链接 https://www.imdb.com/title/tt1453405
◎豆瓣评分 8.2/10 from 276724 users
◎豆瓣链接 https://movie.douban.com/subject/3789848/
◎片  长 104分钟
◎导  演 丹·斯坎伦 Dan Scanlon
◎编  剧 罗伯特·L·贝尔德 Robert L. Baird / 丹尼尔·吉尔森 Daniel Gerson / 丹·斯坎伦 Dan Scanlon
◎主  演 比利·克里斯托 Billy Crystal
      约翰·古德曼 John Goodman
      史蒂夫·布西密 Steve Buscemi
      海伦·米伦 Helen Mirren
      彼得·索恩 Peter Sohn
      乔尔·默里 Joel Murray
      西恩·海耶斯 Sean Hayes
      大卫·弗利 Dave Foley
      查理·戴 Charlie Day
      阿尔弗雷德·莫里纳 Alfred Molina
      泰勒·莱伯恩 Tyler Labine
      内森·菲利安 Nathan Fillion
      奥布瑞·普拉扎 Aubrey Plaza
      贝丝·比厄 Beth Behrs
      鲍比·莫伊尼汉 Bobby Moynihan
      朱丽亚·斯维尼 Julia Sweeney



◎简  介

  自幼憧憬惊吓专员职业的大眼仔麦克·华斯基(比利·克里斯托 Billy Crystal 配音),终于如愿考入曾走出过无数传奇人物的怪兽大学惊吓学院。对于这个相貌讨喜、丝毫没有任何恐怖气场的小怪物来说,死啃书本似乎是实现梦想的唯一途径。与之相对,系出惊吓名门的同学毛怪詹姆士·苏利文(约翰·古德曼 John Goodman 配音)天生是周围同学关注的焦点,完全一副什么都无所谓的浪荡公子哥做派。倒霉的是这两个脾气完全不合的家伙惹到了极其严格的院长迪安·哈德斯克莱博(海伦·米伦 Helen Mirren 配音),结果在期中考试时被三振出局,驱逐出惊吓学院。不甘失败的大眼仔抓住一线机会,集结团队报名参加兄弟会举办的惊吓游戏,只要获胜的话便有机会重返惊吓学院。而在高手云集的赛场上,大眼仔与毛怪即将迎接前所未有的挑战……
  本片为皮克斯动画片《怪兽电力公司》的前传。

◎获奖情况

  第41届动画安妮奖(2014)
  最佳动画长片(提名)
  最佳编剧(提名) 丹尼尔·吉尔森 / 丹·斯坎隆 / 罗伯特·L·贝尔德
  最佳配音(提名) 比利·克里斯托
  最佳配乐(提名) 兰迪·纽曼
  最佳剪辑
  最佳分镜
  最佳艺术指导(提名)
  最佳动画角色(提名)
  最佳角色设计(提名)
  最佳动画效果(提名)

  第25届美国制片人工会奖(2014)
  最佳动画片制片人奖(提名) Kori Rae

  第64届美国剪辑工会奖(2014)
  动画片最佳剪辑(提名) 格雷戈·斯奈德

  第61届美国音效剪辑协会奖(2014)
  金卷轴奖 最佳动画片音效剪辑(提名) Pascal Garneau / Teresa Eckton / 迈克尔·席维斯 / Luke Dunn Gielmuda / Brian Chumney / Dustin Cawood / Bruno Coon / Tom Myers / Dennie Thorpe / Jana Vance

  第12届美国视觉效果协会奖(2014)
  最佳动画电影视觉效果(提名) Kori Rae / Jon Reisch
  最佳动画电影CG背景(提名)

  第50届美国声音效果协会奖(2014)
  动画电影最佳音效(提名) Doc Kane / 加里·萨默斯 / 迈克尔·斯曼内科

  第19届美国评论家选择电影奖(2014)
  最佳动画片(提名)

  第18届金卫星奖(2014)
  电影部门 最佳动画片(提名)

  第17届好莱坞电影奖(2013)
  年度电影(提名) 丹·斯坎隆
  年度动画 Kori Rae / 丹·斯坎隆

  第12届华盛顿影评人协会奖(2013)
  最佳动画片(提名)

  第13届凤凰城影评人协会奖(2013)
  最佳动画片(提名)

  第17届美国在线影评人协会奖(2013)
  最佳动画片(提名)

  第15届美国青少年选择奖(2013)
  最佳暑期喜剧片(提名)

  第4届豆瓣电影鑫像奖(2014)
  鑫豆单元 最佳动画长片(提名)

General
Complete name                  : H:\4K@电影\Monsters.University.2013.2160p.WEB-DL.TrueHD.Atmos.7.1.DV.HEVC-NOSiViD.mkv
Format                         : Matroska
Format version                 : Version 4
File size                      : 22.5 GiB
Duration                       : 1 h 43 min
Overall bit rate mode          : Variable
Overall bit rate               : 31.1 Mb/s
Movie name                     : Monsters University (2013)
Encoded date                   : UTC 2021-12-05 09:47:57
Writing application            : mkvmerge v63.0.0 ('Everything') 64-bit
Writing library                : libebml v1.4.2 + libmatroska v1.6.4
IMDB                           : tt1453405
TMDB                           : movie/62211

Video
ID                             : 1
Format                         : HEVC
Format/Info                    : High Efficiency Video Coding
Format profile                 : Main 10@L5@High
HDR format                     : Dolby Vision, Version 1.0, dvhe.05.06, BL+RPU
Codec ID                       : V_MPEGH/ISO/HEVC
Duration                       : 1 h 43 min
Bit rate                       : 22.9 Mb/s
Width                          : 3 832 pixels
Height                         : 2 152 pixels
Display aspect ratio           : 16:9
Frame rate mode                : Constant
Frame rate                     : 23.976 (23976/1000) FPS
Color space                    : YUV
Chroma subsampling             : 4:2:0
Bit depth                      : 10 bits
Bits/(Pixel*Frame)             : 0.116
Stream size                    : 16.6 GiB (74%)
Default                        : Yes
Forced                         : No

Audio #1
ID                             : 2
Format                         : MLP FBA 16-ch
Format/Info                    : Meridian Lossless Packing FBA with 16-channel presentation
Commercial name                : Dolby TrueHD with Dolby Atmos
Codec ID                       : A_TRUEHD
Duration                       : 1 h 43 min
Bit rate mode                  : Variable
Bit rate                       : 7 415 kb/s
Maximum bit rate               : 9 756 kb/s
Channel(s)                     : 8 channels
Channel layout                 : L R C LFE Ls Rs Lb Rb
Sampling rate                  : 48.0 kHz
Frame rate                     : 1 200.000 FPS (40 SPF)
Compression mode               : Lossless
Delay relative to video        : 335 ms
Stream size                    : 5.38 GiB (24%)
Title                          : TrueHD Atmos 7.1
Language                       : English
Default                        : Yes
Forced                         : No
Number of dynamic objects      : 13
Bed channel count              : 1 channel
Bed channel configuration      : LFE

Audio #2
ID                             : 3
Format                         : AC-3
Format/Info                    : Audio Coding 3
Commercial name                : Dolby Digital
Codec ID                       : A_AC3
Duration                       : 1 h 43 min
Bit rate mode                  : Constant
Bit rate                       : 640 kb/s
Channel(s)                     : 6 channels
Channel layout                 : L R C LFE Ls Rs
Sampling rate                  : 48.0 kHz
Frame rate                     : 31.250 FPS (1536 SPF)
Compression mode               : Lossy
Delay relative to video        : 335 ms
Stream size                    : 475 MiB (2%)
Title                          : AC-3 5.1
Language                       : English
Service kind                   : Complete Main
Default                        : No
Forced                         : No

Text #1
ID                             : 4
Format                         : UTF-8
Codec ID                       : S_TEXT/UTF8
Codec ID/Info                  : UTF-8 Plain Text
Duration                       : 1 h 42 min
Bit rate                       : 57 b/s
Count of elements              : 1482
Stream size                    : 43.3 KiB (0%)
Language                       : English
Default                        : No
Forced                         : No

Text #2
ID                             : 5
Format                         : UTF-8
Codec ID                       : S_TEXT/UTF8
Codec ID/Info                  : UTF-8 Plain Text
Duration                       : 1 h 42 min
Bit rate                       : 71 b/s
Count of elements              : 1912
Stream size                    : 53.4 KiB (0%)
Title                          : SDH
Language                       : English
Default                        : No
Forced                         : No

Text #3
ID                             : 6
Format                         : UTF-8
Codec ID                       : S_TEXT/UTF8
Codec ID/Info                  : UTF-8 Plain Text
Duration                       : 1 h 42 min
Bit rate                       : 58 b/s
Count of elements              : 1213
Stream size                    : 43.5 KiB (0%)
Title                          : Latin American
Language                       : Spanish
Default                        : No
Forced                         : No

Menu
00:00:00.335                   : en:Field Trip
00:06:27.722                   : en:Titles
00:07:07.887                   : en:Freshman Orientation
00:10:55.114                   : en:Roommates
00:12:20.950                   : en:First Day
00:16:10.971                   : en:Not My Room
00:18:16.638                   : enig Chase
00:19:38.595                   : en:A Challenge
00:21:07.851                   : en:1st Semester Showdown
00:23:44.632                   : en:Kicked Out
00:29:23.721                   : enream Over
00:30:40.465                   : en:Mike's Plan
00:33:39.101                   : en:OK Brothers
00:36:31.982                   : en:Initiation
00:38:20.424                   : en:First Morning
00:39:23.570                   : en:Toxicity Challenge
00:45:14.337                   : en:My Way
00:47:15.834                   : en:Keep Quiet
00:51:09.150                   : enarty Like Scarers
00:55:22.194                   : en:Cute-Ma Kappa
00:57:31.323                   : en:The Big Leagues
01:01:43.242                   : en:Teamwork
01:04:38.292                   : en:A Seed Of Doubt
01:07:34.009                   : en:Final Competition
01:14:12.323                   : en:A Betrayal
01:18:08.851                   : enoor Breach
01:19:26.721                   : en:Searching For Mike
01:23:54.405                   : en:Shut Down
01:24:39.658                   : en:The Big Scare
01:28:01.235                   : en:Separate Ways
01:32:52.359                   : en:Epilogue
01:34:25.035                   : en:End Credits

迅雷下载资源速度为零或资源敏感被和谐时,推荐使用qBittorrent等下载软件,有条件的推荐115更好的下载软件!

下载地址

游客,如果您要查看本帖隐藏内容请回复

游客,如果您要查看本帖隐藏内容请回复




.



上一篇:头脑特工队 / Inside Out (2015) 4K高清版本下载
下一篇:夏日友晴天 / Luca (2021) 4K高清版本下载
回复

使用道具 举报

48

主题

1499

帖子

4303

积分

4K家园VIP

Rank: 9Rank: 9Rank: 9

积分
4303
发表于 2021-12-27 16:31:58 | 显示全部楼层
好像还可以
回复 支持 反对

使用道具 举报

0

主题

7280

帖子

1万

积分

4K家园VIP

Rank: 9Rank: 9Rank: 9

积分
16651
发表于 2021-12-27 17:30:23 | 显示全部楼层
太好啦&萬分感謝版主的無私發佈分享%
回复 支持 反对

使用道具 举报

3

主题

1307

帖子

3945

积分

4K家园VIP

Rank: 9Rank: 9Rank: 9

积分
3945
发表于 2021-12-28 12:23:43 | 显示全部楼层
LZ是天才,坚定完毕
回复 支持 反对

使用道具 举报

37

主题

1466

帖子

4198

积分

4K家园VIP

Rank: 9Rank: 9Rank: 9

积分
4198
发表于 2021-12-31 07:11:59 | 显示全部楼层
体验下4K版的
回复 支持 反对

使用道具 举报

53

主题

1205

帖子

3681

积分

4K家园VIP

Rank: 9Rank: 9Rank: 9

积分
3681
发表于 前天 03:31 | 显示全部楼层
支持支持再支持
回复 支持 反对

使用道具 举报

0

主题

3

帖子

12

积分

新手上路

Rank: 1

积分
12
发表于 前天 19:22 | 显示全部楼层
aaaaaaaaaaaaaaaaaaaaaaaaaaaaaaaaaaaaaaaaaaaaaaaaaaaaa
回复 支持 反对

使用道具 举报

您需要登录后才可以回帖 登录 | 立即注册

本版积分规则

精彩图文
Archiver|手机版|TAG|Sitemap|新帖|专题|联系我们:邮箱: 4kjia.com@gmail.com   

4k家园   ©2019