[4K电影] 夏日友晴天 / Luca (2021) 4K高清版本下载

[复制链接]

1339

主题

1444

帖子

1万

积分

超级版主

Rank: 8Rank: 8

积分
11232
 楼主| 发表于 2021-12-27 16:34:24 | 显示全部楼层 |阅读模式
本帖最后由 最爱4K哟 于 2021-12-29 16:53 编辑

夏日友晴天.jpg

◎译  名 夏日友晴天/卢卡/盛夏友晴天(港)/路卡的夏天(台)
◎片  名 Luca
◎年  代 2021
◎产  地 美国
◎类  别 喜剧 / 动画 / 奇幻 / 冒险
◎语  言 英语,意大利语
◎上映日期 2021-06-18(美国网络) / 2021-08-20(中国大陆)
◎豆瓣评分 7.3/10 from 84026 users
◎豆瓣链接 https://movie.douban.com/subject/35161768/
◎片  长 95分钟
◎导  演 埃里康·卡萨罗萨 Enrico Casarosa
◎编  剧 埃里康·卡萨罗萨 Enrico Casarosa / 杰西·安德鲁斯 Jesse Andrews / 西蒙·斯蒂芬森 Simon Stephenson / 麦克·琼斯 Mike Jones / 朱莉·林恩 Julie Lynn / 兰达尔·格林 Randall Green
◎主  演 雅各布·特伦布莱 Jacob Tremblay
      杰克·迪伦·格雷泽 Jack Dylan Grazer
      艾玛·伯曼 Emma Berman
      萨维里奥·雷蒙多 Saverio Raimondo
      玛娅·鲁道夫 Maya Rudolph
      萨莎·拜伦·科恩 Sacha Baron Cohen
      马可·巴里切利 Marco Barricelli
      吉姆·加菲根 Jim Gaffigan
      彼得·孙 Peter Sohn
      洛伦佐·克里斯奇 Lorenzo Crisci
      玛丽娜·马西罗尼 Marina Massironi
      吉诺·拉·莫妮卡 Gino La Monica
      桑迪·马丁 Sandy Martin
      嘉科莫·吉安尼欧缇 Giacomo Gianniotti
      艾莉莎·加布瑞利 Elisa Gabrielli
      咪咪·梅纳德 Mimi Maynard
      埃里康·卡萨罗萨 Enrico Casarosa
      吉姆·皮里 Jim Pirri
      Gino D'Acampo Gino D'Acampo
      德雷克·贝尔 Drake Bell
      约翰·拉岑贝格 John Ratzenberger
      乔纳森·尼科尔斯 Jonathan Nichols


◎简  介

  故事发生在意大利里维埃拉地区的一个美丽海滨小镇,讲述了男孩卢卡(雅各布·特伦布莱 配音)在令人难忘的夏季,所经历的成长故事,充满了意式冰淇淋、意大利面和无尽的摩托车骑行。卢卡与好友阿贝托(杰克·迪伦·格雷泽 配音)和新朋友茱莉娅(艾玛·伯曼 配音)共赴冒险,但所有的乐趣都受到一个深藏不露的秘密威胁——他们两人是来自水面下另一个世界的海怪。

◎获奖情况

  第79届金球奖 ?(2022)
  电影类最佳动画长片(提名)

General
Complete name                  : H:\4K@电影\Luca.2021.2160p.WEB-DL.TrueHD.Atmos.7.1.DV.HEVC-NOSiViD.mkv
Format                         : Matroska
Format version                 : Version 4
File size                      : 20.7 GiB
Duration                       : 1 h 35 min
Overall bit rate mode          : Variable
Overall bit rate               : 31.1 Mb/s
Movie name                     : Luca (2021)
Encoded date                   : UTC 2021-12-05 09:57:00
Writing application            : mkvmerge v63.0.0 ('Everything') 64-bit
Writing library                : libebml v1.4.2 + libmatroska v1.6.4
IMDB                           : tt12801262
TMDB                           : movie/508943

Video
ID                             : 1
Format                         : HEVC
Format/Info                    : High Efficiency Video Coding
Format profile                 : Main 10@L5@High
HDR format                     : Dolby Vision, Version 1.0, dvhe.05.06, BL+RPU
Codec ID                       : V_MPEGH/ISO/HEVC
Duration                       : 1 h 35 min
Bit rate                       : 24.3 Mb/s
Width                          : 3 840 pixels
Original width                 : 3 838 pixels
Height                         : 2 072 pixels
Display aspect ratio           : 1.85:1
Original display aspect ratio  : 1.85:1
Frame rate mode                : Constant
Frame rate                     : 23.976 (24000/1001) FPS
Color space                    : YUV
Chroma subsampling             : 4:2:0
Bit depth                      : 10 bits
Bits/(Pixel*Frame)             : 0.127
Stream size                    : 16.1 GiB (78%)
Default                        : Yes
Forced                         : No

Audio #1
ID                             : 2
Format                         : MLP FBA 16-ch
Format/Info                    : Meridian Lossless Packing FBA with 16-channel presentation
Commercial name                : Dolby TrueHD with Dolby Atmos
Codec ID                       : A_TRUEHD
Duration                       : 1 h 35 min
Bit rate mode                  : Variable
Bit rate                       : 6 071 kb/s
Maximum bit rate               : 5 985 kb/s
Channel(s)                     : 8 channels
Channel layout                 : L R C LFE Ls Rs Lb Rb
Sampling rate                  : 48.0 kHz
Frame rate                     : 1 200.000 FPS (40 SPF)
Compression mode               : Lossless
Delay relative to video        : 40 ms
Stream size                    : 4.04 GiB (20%)
Title                          : TrueHD Atmos 7.1
Language                       : English
Default                        : Yes
Forced                         : No
Number of dynamic objects      : 13
Bed channel count              : 1 channel
Bed channel configuration      : LFE

Audio #2
ID                             : 3
Format                         : AC-3
Format/Info                    : Audio Coding 3
Commercial name                : Dolby Digital
Codec ID                       : A_AC3
Duration                       : 1 h 35 min
Bit rate mode                  : Constant
Bit rate                       : 640 kb/s
Channel(s)                     : 6 channels
Channel layout                 : L R C LFE Ls Rs
Sampling rate                  : 48.0 kHz
Frame rate                     : 31.250 FPS (1536 SPF)
Compression mode               : Lossy
Delay relative to video        : 40 ms
Stream size                    : 436 MiB (2%)
Title                          : AC-3 5.1
Language                       : English
Service kind                   : Complete Main
Default                        : No
Forced                         : No

Text #1
ID                             : 4
Format                         : UTF-8
Codec ID                       : S_TEXT/UTF8
Codec ID/Info                  : UTF-8 Plain Text
Duration                       : 1 h 33 min
Bit rate                       : 54 b/s
Count of elements              : 1300
Stream size                    : 37.3 KiB (0%)
Language                       : English
Default                        : No
Forced                         : No

Text #2
ID                             : 5
Format                         : UTF-8
Codec ID                       : S_TEXT/UTF8
Codec ID/Info                  : UTF-8 Plain Text
Duration                       : 1 h 33 min
Bit rate                       : 52 b/s
Count of elements              : 1299
Stream size                    : 35.7 KiB (0%)
Title                          : Latin American
Language                       : Spanish
Default                        : No
Forced                         : No

Text #3
ID                             : 6
Format                         : UTF-8
Codec ID                       : S_TEXT/UTF8
Codec ID/Info                  : UTF-8 Plain Text
Duration                       : 1 h 33 min
Bit rate                       : 52 b/s
Count of elements              : 1190
Stream size                    : 35.8 KiB (0%)
Language                       : French
Default                        : No
Forced                         : No

Menu
00:00:00.040                   : enrologue
00:02:27.938                   : en:Meet Luca
00:06:27.260                   : en:Family Lunch
00:08:29.924                   : en:Meet Alberto
00:11:19.552                   : en:World Above
00:14:35.331                   : en:Alberto's Hideout
00:16:30.237                   : enaranoid
00:17:07.775                   : en:Best Friends
00:21:19.526                   : en:Rooftop
00:23:32.034                   : en:Busted
00:26:01.433                   : en:Running Away
00:28:11.855                   : en:Vespatown
00:32:55.555                   : en:Meet Giulia
00:35:40.011                   : en:Bike Test
00:37:29.412                   : en:Massimo Dinner
00:41:38.244                   : enarents Arrive
00:42:25.916                   : en:Massimo Chores
00:45:04.158                   : en:Wrong Kid
00:46:06.720                   : en:Signing Up
00:48:53.679                   : en:Close Call
00:51:00.138                   : en:Soccer Mom
00:52:04.786                   : en:Telescope
00:54:33.602                   : en:Saturn Dream
00:56:18.874                   : en:Vespa Gazing
00:58:30.380                   : en:Race Training
01:00:07.560                   : en:Spotted
01:00:43.638                   : en:Wipeout
01:02:10.099                   : en:Splash
01:04:51.969                   : en:Without Alberto
01:06:49.128                   : en:Reconciliation
01:09:33.876                   : en:Race Begins
01:13:20.018                   : en:Bike Race
01:16:47.517                   : en:Finish Line
01:19:33.517                   : en:Giulia Packing
01:20:53.763                   : enarting Ways
01:24:34.984                   : en:Credits
01:33:41.572                   : en:In The Deep

迅雷下载资源速度为零或资源敏感被和谐时,推荐使用qBittorrent等下载软件,有条件的推荐115更好的下载软件!

下载地址

游客,如果您要查看本帖隐藏内容请回复

游客,如果您要查看本帖隐藏内容请回复




.

上一篇:怪兽大学 / Monsters University (2013) 4K高清版本下载
下一篇:国家宝藏 / National Treasure (2004) 4K高清版本下载
回复

使用道具 举报

0

主题

1330

帖子

3840

积分

4K家园VIP

Rank: 9Rank: 9Rank: 9

积分
3840
发表于 2021-12-27 16:34:32 | 显示全部楼层
没明白
回复 支持 反对

使用道具 举报

1

主题

1287

帖子

3877

积分

4K家园VIP

Rank: 9Rank: 9Rank: 9

积分
3877
发表于 2021-12-27 16:34:32 来自手机 | 显示全部楼层
为保住菊花,这个一定得回复!
回复 支持 反对

使用道具 举报

0

主题

9

帖子

36

积分

新手上路

Rank: 1

积分
36
发表于 2022-1-8 21:22:47 | 显示全部楼层
夏日友晴天
回复 支持 反对

使用道具 举报

0

主题

31

帖子

57

积分

新手上路

Rank: 1

积分
57
发表于 2022-1-8 22:38:24 来自手机 | 显示全部楼层
http://www.4kjia.com/forum.php?mod=guide&view=hot&mobile=2
回复 支持 反对

使用道具 举报

0

主题

31

帖子

57

积分

新手上路

Rank: 1

积分
57
发表于 2022-1-8 23:10:36 来自手机 | 显示全部楼层
2021-12-14 19:00:06 4K家园不错,希望这种资源越多越好
回复 支持 反对

使用道具 举报

0

主题

31

帖子

57

积分

新手上路

Rank: 1

积分
57
发表于 2022-1-8 23:10:47 来自手机 | 显示全部楼层
http://www.4kjia.com/forum.php?mod=guide&view=hot&mobile=2
回复 支持 反对

使用道具 举报

0

主题

31

帖子

57

积分

新手上路

Rank: 1

积分
57
发表于 2022-1-8 23:10:55 来自手机 | 显示全部楼层
2021-12-14 19:00:06 4K家园不错,希望这种资源越多越好
回复 支持 反对

使用道具 举报

1

主题

1388

帖子

4180

积分

4K家园VIP

Rank: 9Rank: 9Rank: 9

积分
4180
发表于 5 天前 来自手机 | 显示全部楼层
围观 围观 沙发在哪里!!!
回复 支持 反对

使用道具 举报

2

主题

1599

帖子

4397

积分

4K家园VIP

Rank: 9Rank: 9Rank: 9

积分
4397
发表于 4 天前 | 显示全部楼层
分享的不错,希望楼主继续分享
回复 支持 反对

使用道具 举报

您需要登录后才可以回帖 登录 | 立即注册

本版积分规则

精彩图文
Archiver|手机版|TAG|Sitemap|新帖|专题|联系我们:邮箱: 4kjia.com@gmail.com   

4k家园   ©2019