[4K电影] 二分之一的魔法 / Onward (2020) 4K高清版本下载

[复制链接]

1323

主题

1428

帖子

1万

积分

超级版主

Rank: 8Rank: 8

积分
11131
 楼主| 发表于 2021-12-27 17:01:39 | 显示全部楼层 |阅读模式
本帖最后由 最爱4K哟 于 2021-12-29 17:03 编辑

二分之一.jpg

◎译  名 1 / 2的魔法 / ½的魔法 / 勇往直前 / 向前 / 觅法奇程 / 魔法环游记
◎片  名 Onward
◎年  代 2020
◎产  地 美国
◎类  别 喜剧 / 动画 / 奇幻 / 冒险
◎语  言 英语
◎上映日期 2020-02-21(柏林电影节) / 2020-03-06(美国)
◎IMDb评分  7.7/10 from 12388 users
◎IMDb链接  https://www.imdb.com/title/tt7146812
◎豆瓣评分 8.2/10 from 776 users
◎豆瓣链接 https://movie.douban.com/subject/30401849/
◎片  长 102分钟
◎导  演 丹·斯坎隆 Dan Scanlon
◎编  剧 丹·斯坎隆 Dan Scanlon / 基思·布宁 Keith Bunin
◎主  演 汤姆·赫兰德 Tom Holland
       克里斯·帕拉特 Chris Pratt
       茱莉亚·路易斯-德瑞弗斯 Julia Louis-Dreyfus
       奥克塔维亚·斯宾瑟 Octavia Spencer
       梅尔·罗德里格斯 Mel Rodriguez
       凯尔·柏海莫 Kyle Bornheimer
       丽娜·维特 Lena Waithe
       黄阿丽 Ali Wong
       格蕾·德丽斯勒 Grey DeLisle
       崔茜·尤玛 Tracey Ullman
       维尔摩·瓦尔德拉玛 Wilmer Valderrama
       乔治·普萨拉 George Psarras
       约翰·拉岑贝格 John Ratzenberger


◎简  介  

  影片设定在一个由精灵、巨魔和灵魂等组成的郊外幻想世界,在那里独角兽在垃圾桶中穿行,像是有着糖果条纹的负鼠。影片提供了一个前提,即魔法是真实的,但它早已被现代技术所遗忘和取代。一对十几岁的兄弟,在他们尚不更事时父亲便已离世,他们决定进入这个幻想世界,与父亲共度最后一个神奇的日子。霍兰德配音弟弟伊安、帕拉特配音聒噪的哥哥、德瑞弗斯配音兄弟二人的母亲、斯宾瑟则会利用其声线的优势。
General
Complete name                  : H:\4K@电影\Onward.2020.2160p.WEB-DL.TrueHD.Atmos.7.1.DV.HEVC-NOSiViD.mkv
Format                         : Matroska
Format version                 : Version 4
File size                      : 22.5 GiB
Duration                       : 1 h 42 min
Overall bit rate mode          : Variable
Overall bit rate               : 31.5 Mb/s
Movie name                     : Onward (2020)
Encoded date                   : UTC 2021-12-05 10:35:24
Writing application            : mkvmerge v63.0.0 ('Everything') 64-bit
Writing library                : libebml v1.4.2 + libmatroska v1.6.4
IMDB                           : tt7146812
TMDB                           : movie/508439

Video
ID                             : 1
Format                         : HEVC
Format/Info                    : High Efficiency Video Coding
Format profile                 : Main 10@L5@High
HDR format                     : Dolby Vision, Version 1.0, dvhe.05.06, BL+RPU
Codec ID                       : V_MPEGH/ISO/HEVC
Duration                       : 1 h 42 min
Bit rate                       : 23.7 Mb/s
Width                          : 3 832 pixels
Height                         : 1 608 pixels
Display aspect ratio           : 2.40:1
Frame rate mode                : Constant
Frame rate                     : 23.976 (23976/1000) FPS
Color space                    : YUV
Chroma subsampling             : 4:2:0
Bit depth                      : 10 bits
Bits/(Pixel*Frame)             : 0.161
Stream size                    : 17.0 GiB (75%)
Default                        : Yes
Forced                         : No

Audio #1
ID                             : 2
Format                         : MLP FBA 16-ch
Format/Info                    : Meridian Lossless Packing FBA with 16-channel presentation
Commercial name                : Dolby TrueHD with Dolby Atmos
Codec ID                       : A_TRUEHD
Duration                       : 1 h 42 min
Bit rate mode                  : Variable
Bit rate                       : 7 021 kb/s
Maximum bit rate               : 10.9 Mb/s
Channel(s)                     : 8 channels
Channel layout                 : L R C LFE Ls Rs Lb Rb
Sampling rate                  : 48.0 kHz
Frame rate                     : 1 200.000 FPS (40 SPF)
Compression mode               : Lossless
Stream size                    : 5.02 GiB (22%)
Title                          : TrueHD Atmos 7.1
Language                       : English
Default                        : Yes
Forced                         : No
Number of dynamic objects      : 13
Bed channel count              : 1 channel
Bed channel configuration      : LFE

Audio #2
ID                             : 3
Format                         : AC-3
Format/Info                    : Audio Coding 3
Commercial name                : Dolby Digital
Codec ID                       : A_AC3
Duration                       : 1 h 42 min
Bit rate mode                  : Constant
Bit rate                       : 640 kb/s
Channel(s)                     : 6 channels
Channel layout                 : L R C LFE Ls Rs
Sampling rate                  : 48.0 kHz
Frame rate                     : 31.250 FPS (1536 SPF)
Compression mode               : Lossy
Delay relative to video        : 20 ms
Stream size                    : 469 MiB (2%)
Title                          : AC-3 5.1
Language                       : English
Service kind                   : Complete Main
Default                        : No
Forced                         : No

Text #1
ID                             : 4
Format                         : UTF-8
Codec ID                       : S_TEXT/UTF8
Codec ID/Info                  : UTF-8 Plain Text
Duration                       : 1 h 35 min
Bit rate                       : 66 b/s
Count of elements              : 1612
Stream size                    : 46.3 KiB (0%)
Language                       : English
Default                        : No
Forced                         : No

Text #2
ID                             : 5
Format                         : UTF-8
Codec ID                       : S_TEXT/UTF8
Codec ID/Info                  : UTF-8 Plain Text
Duration                       : 1 h 35 min
Bit rate                       : 78 b/s
Count of elements              : 1904
Stream size                    : 54.8 KiB (0%)
Title                          : SDH
Language                       : English
Default                        : No
Forced                         : No

Text #3
ID                             : 6
Format                         : UTF-8
Codec ID                       : S_TEXT/UTF8
Codec ID/Info                  : UTF-8 Plain Text
Duration                       : 1 h 31 min
Bit rate                       : 65 b/s
Count of elements              : 1387
Stream size                    : 43.7 KiB (0%)
Title                          : Latin American
Language                       : Spanish
Default                        : No
Forced                         : No

Menu
00:00:00.000                   : enrologue
00:02:29.405                   : en:Chaotic House
00:07:05.764                   : enad's Legacy
00:08:13.707                   : en:School Fail
00:12:44.394                   : en:Tape Recorder
00:14:53.106                   : en:The Gift
00:19:20.415                   : en:Conjuring Dad
00:23:45.429                   : en:Off We Go
00:25:34.121                   : en:Mom Finds Note
00:26:10.491                   : enoosen Up
00:27:24.815                   : en:Manticore's Tavern
00:30:01.513                   : en:Fallen Idol
00:32:48.514                   : en:The Plan
00:34:43.003                   : en:Mom And Manticore
00:36:40.162                   : en:Bigger Man
00:40:41.361                   : en:Gas Station
00:42:48.112                   : en:The Curse
00:44:01.519                   : en:Sprite Insult
00:45:40.493                   : enriving Test
00:47:48.538                   : en:Honesty
00:52:00.748                   : enance Fight
00:55:11.522                   : enawn Shop
00:57:23.320                   : en:Trust Bridge
01:02:22.702                   : en:Change Of Plans
01:04:02.344                   : en:Sacrifice
01:07:12.450                   : en:Following Ravens
01:08:48.421                   : en:Underground
01:10:05.540                   : en:To The Skies
01:11:11.647                   : en:Reward
01:13:12.435                   : en:Working Together
01:15:58.100                   : enowest Low
01:17:36.407                   : en:Father Figure
01:20:25.701                   : enragon High
01:25:00.642                   : en:Master Wizard
01:26:58.969                   : en:Meeting Dad
01:30:10.160                   : en:Epilogue
01:32:51.279                   : en:Credits

迅雷下载资源速度为零或资源敏感被和谐时,推荐使用qBittorrent等下载软件,有条件的推荐115更好的下载软件!

下载地址

游客,如果您要查看本帖隐藏内容请回复

游客,如果您要查看本帖隐藏内容请回复



.

上一篇:国家宝藏 / National Treasure (2004) 4K高清版本下载
下一篇:恐龙当家 / The Good Dinosaur (2015) 4K高清版本下载
回复

使用道具 举报

2

主题

1315

帖子

3765

积分

4K家园VIP

Rank: 9Rank: 9Rank: 9

积分
3765
发表于 2021-12-27 17:01:45 | 显示全部楼层
你们要是有4K资源记得分享,别小气
回复 支持 反对

使用道具 举报

0

主题

7236

帖子

1万

积分

4K家园VIP

Rank: 9Rank: 9Rank: 9

积分
16568
发表于 2021-12-27 17:30:36 | 显示全部楼层
太好啦&萬分感謝版主的無私發佈分享%
回复 支持 反对

使用道具 举报

0

主题

19

帖子

153

积分

新手上路

Rank: 1

积分
153
发表于 2021-12-27 18:18:45 | 显示全部楼层
感谢楼主无私奉献
回复 支持 反对

使用道具 举报

1

主题

1581

帖子

4385

积分

4K家园VIP

Rank: 9Rank: 9Rank: 9

积分
4385
发表于 6 天前 | 显示全部楼层
佩服佩服!
回复 支持 反对

使用道具 举报

40

主题

1508

帖子

4314

积分

4K家园VIP

Rank: 9Rank: 9Rank: 9

积分
4314
发表于 4 天前 | 显示全部楼层
我也是坐沙发的
回复 支持 反对

使用道具 举报

0

主题

1676

帖子

4540

积分

4K家园VIP

Rank: 9Rank: 9Rank: 9

积分
4540
发表于 昨天 03:42 来自手机 | 显示全部楼层
回复 支持 反对

使用道具 举报

44

主题

1484

帖子

4270

积分

4K家园VIP

Rank: 9Rank: 9Rank: 9

积分
4270
发表于 昨天 16:21 | 显示全部楼层
这个资源我记得是一套的,楼主还有没有
回复 支持 反对

使用道具 举报

您需要登录后才可以回帖 登录 | 立即注册

本版积分规则

精彩图文
Archiver|手机版|TAG|Sitemap|新帖|专题|联系我们:邮箱: 4kjia.com@gmail.com   

4k家园   ©2019