[4K电影] 玩具总动员2(内封简繁中字) / Toy Story 2 (1999) 4K高清版本下载

[复制链接]

1339

主题

1444

帖子

1万

积分

超级版主

Rank: 8Rank: 8

积分
11232
 楼主| 发表于 2021-12-27 18:19:43 | 显示全部楼层 |阅读模式

玩具总动员2.jpg

◎译  名 玩具总动员2/反斗奇兵2(港)/反斗奇兵续集/玩具的故事2
◎片  名 Toy Story 2
◎年  代 1999
◎产  地 美国
◎类  别 喜剧 / 动画 / 奇幻 / 冒险
◎语  言 英语
◎上映日期 1999-11-24(美国)
◎豆瓣评分 8.4/10 from 205446 users
◎豆瓣链接 https://movie.douban.com/subject/1291574/
◎片  长 92分钟
◎导  演 约翰·拉塞特 John Lasseter / 艾什·布兰农 Ash Brannon / 李·昂克里奇 Lee Unkrich
◎编  剧 约翰·拉塞特 John Lasseter / 彼特·道格特 Pete Docter / 艾什·布兰农 Ash Brannon / 安德鲁·斯坦顿 Andrew Stanton / 萧丽塔 Rita Hsiao / 道格·钱伯林 Doug Chamberlin / 克里斯·韦伯 Chris Webb
◎主  演 汤姆·汉克斯 Tom Hanks
      蒂姆·艾伦 Tim Allen
      琼·库萨克 Joan Cusack
      凯尔希·格兰莫 Kelsey Grammer
      唐·里克斯 Don Rickles
      吉姆·法尼 Jim Varney
      华莱士·肖恩 Wallace Shawn
      约翰·拉岑贝格 John Ratzenberger
      安妮·波茨 Annie Potts
      韦恩·奈特 Wayne Knight
      约翰·莫里斯 John Morris
      劳里·梅特卡夫 Laurie Metcalf
      爱丝黛儿·哈里斯 Estelle Harris
      李·厄米 R. Lee Ermey
      裘蒂·班森 Jodi Benson
      唐泽寿明 Toshiaki Karasawa
      户田惠子 Keiko Toda
      雪莉·琳恩 Sherry Lynn
      李·昂克里奇 Lee Unkrich
      比尔·法玛尔 Bill Farmer
      童自荣 Zirong Tong

◎标  签 动画 | 美国 | 迪斯尼 | pixar | 动画片 | 1999 | 皮克斯 | DISNEY

◎简  介

  自从上一集牛仔伍迪救回巴斯光年之后,他一直和其他玩具一起快乐的生活在小主人家。一次,小主人参加夏令营去了,伍迪因为破旧而没被带去。留在家里的伍迪恰巧被一个玩具收藏家发现了,认为他是近代最具代表性的玩具。于是将伍迪被偷了出来放在颇富盛名的文化博物馆内展览。在家里所有的玩具 都很担心伍迪,因此巴斯光年自告奋勇去寻找伍迪,但是当他们发现伍迪在展览馆时, 伍迪却似乎不再愿意回去过那平凡的生活……

◎获奖情况

  第72届奥斯卡金像奖 ?(2000)
  最佳原创歌曲(提名) 兰迪·纽曼

  第57届金球奖 ?(2000)
  电影类最佳音乐/喜剧片
  电影类最佳原创歌曲(提名) 兰迪·纽曼

  第28届动画安妮奖 ?(2000)
  最佳动画长片
  最佳导演 艾什·布兰农?/?约翰·拉塞特?/?李·昂克里奇
  最佳编剧 安德鲁·斯坦顿?/?道格·钱伯林?/?彼特·道格特?/?萧丽塔?/?艾什·布兰农?/?克里斯·韦伯?/?约翰·拉塞特
  最佳男配音 蒂姆·艾伦
  最佳女配音 琼·库萨克
  最佳配乐 兰迪·纽曼
  最佳分镜 乔·兰福特?/?丹·朱普
  最佳艺术指导(提名) 威廉·科恩?/?吉姆·皮尔森
  最佳动画角色(提名) 道格·斯威特兰德

General
Complete name                  : H:\4K@电影\Toy.Story.2.1999.2160p.WEB-DL.TrueHD.Atmos.7.1.DV.HEVC-NOSiViD.mkv
Format                         : Matroska
Format version                 : Version 4
File size                      : 19.6 GiB
Duration                       : 1 h 32 min
Overall bit rate mode          : Variable
Overall bit rate               : 30.4 Mb/s
Movie name                     : Toy Story 2 (1999)
Encoded date                   : UTC 2021-12-05 09:23:17
Writing application            : mkvmerge v63.0.0 ('Everything') 64-bit
Writing library                : libebml v1.4.2 + libmatroska v1.6.4
IMDB                           : tt0120363
TMDB                           : movie/863

Video
ID                             : 1
Format                         : HEVC
Format/Info                    : High Efficiency Video Coding
Format profile                 : Main 10@L5@High
HDR format                     : Dolby Vision, Version 1.0, dvhe.05.06, BL+RPU
Codec ID                       : V_MPEGH/ISO/HEVC
Duration                       : 1 h 32 min
Bit rate                       : 22.7 Mb/s
Width                          : 3 832 pixels
Height                         : 2 152 pixels
Display aspect ratio           : 16:9
Frame rate mode                : Constant
Frame rate                     : 23.976 (24000/1001) FPS
Color space                    : YUV
Chroma subsampling             : 4:2:0
Bit depth                      : 10 bits
Bits/(Pixel*Frame)             : 0.115
Stream size                    : 14.6 GiB (74%)
Default                        : Yes
Forced                         : No

Audio #1
ID                             : 2
Format                         : MLP FBA 16-ch
Format/Info                    : Meridian Lossless Packing FBA with 16-channel presentation
Commercial name                : Dolby TrueHD with Dolby Atmos
Codec ID                       : A_TRUEHD
Duration                       : 1 h 32 min
Bit rate mode                  : Variable
Bit rate                       : 7 059 kb/s
Maximum bit rate               : 8 883 kb/s
Channel(s)                     : 8 channels
Channel layout                 : L R C LFE Ls Rs Lb Rb
Sampling rate                  : 48.0 kHz
Frame rate                     : 1 200.000 FPS (40 SPF)
Compression mode               : Lossless
Delay relative to video        : 129 ms
Stream size                    : 4.56 GiB (23%)
Title                          : TrueHD Atmos 7.1
Language                       : English
Default                        : Yes
Forced                         : No
Number of dynamic objects      : 13
Bed channel count              : 1 channel
Bed channel configuration      : LFE

Audio #2
ID                             : 3
Format                         : AC-3
Format/Info                    : Audio Coding 3
Commercial name                : Dolby Digital
Format settings                : Dolby Surround EX
Codec ID                       : A_AC3
Duration                       : 1 h 32 min
Bit rate mode                  : Constant
Bit rate                       : 640 kb/s
Channel(s)                     : 6 channels
Channel layout                 : L R C LFE Ls Rs
Sampling rate                  : 48.0 kHz
Frame rate                     : 31.250 FPS (1536 SPF)
Compression mode               : Lossy
Delay relative to video        : 129 ms
Stream size                    : 423 MiB (2%)
Title                          : AC3-EX 5.1
Language                       : English
Service kind                   : Complete Main
Default                        : No
Forced                         : No

Text #1
ID                             : 4
Format                         : UTF-8
Codec ID                       : S_TEXT/UTF8
Codec ID/Info                  : UTF-8 Plain Text
Duration                       : 1 h 29 min
Bit rate                       : 62 b/s
Count of elements              : 1325
Stream size                    : 41.3 KiB (0%)
Language                       : English
Default                        : No
Forced                         : No

Text #2
ID                             : 5
Format                         : UTF-8
Codec ID                       : S_TEXT/UTF8
Codec ID/Info                  : UTF-8 Plain Text
Duration                       : 1 h 31 min
Bit rate                       : 75 b/s
Count of elements              : 1682
Stream size                    : 50.9 KiB (0%)
Title                          : SDH
Language                       : English
Default                        : No
Forced                         : No

Text #3
ID                             : 6
Format                         : UTF-8
Codec ID                       : S_TEXT/UTF8
Codec ID/Info                  : UTF-8 Plain Text
Duration                       : 1 h 29 min
Bit rate                       : 47 b/s
Count of elements              : 1166
Stream size                    : 31.1 KiB (0%)
Title                          : 中文(简体)
Language                       : 中文
Default                        : No
Forced                         : No

Text #4
ID                             : 7
Format                         : UTF-8
Codec ID                       : S_TEXT/UTF8
Codec ID/Info                  : UTF-8 Plain Text
Duration                       : 1 h 28 min
Bit rate                       : 48 b/s
Count of elements              : 1151
Stream size                    : 31.7 KiB (0%)
Title                          : 中文(繁体)
Language                       : 中文
Default                        : No
Forced                         : No


Text #5
ID                             : 8
Format                         : UTF-8
Codec ID                       : S_TEXT/UTF8
Codec ID/Info                  : UTF-8 Plain Text
Duration                       : 1 h 28 min
Bit rate                       : 64 b/s
Count of elements              : 1177
Stream size                    : 41.8 KiB (0%)
Title                          : Latin American
Language                       : Spanish
Default                        : No
Forced                         : No

Text #6
ID                             : 9
Format                         : UTF-8
Codec ID                       : S_TEXT/UTF8
Codec ID/Info                  : UTF-8 Plain Text
Duration                       : 1 h 28 min
Bit rate                       : 56 b/s
Count of elements              : 1124
Stream size                    : 36.7 KiB (0%)
Language                       : French
Default                        : No
Forced                         : No

Text #7
ID                             : 10
Format                         : UTF-8
Codec ID                       : S_TEXT/UTF8
Codec ID/Info                  : UTF-8 Plain Text
Duration                       : 1 h 29 min
Bit rate                       : 52 b/s
Count of elements              : 1171
Stream size                    : 34.7 KiB (0%)
Language                       : Indonesian
Default                        : No
Forced                         : No

Text #8
ID                             : 11
Format                         : UTF-8
Codec ID                       : S_TEXT/UTF8
Codec ID/Info                  : UTF-8 Plain Text
Duration                       : 1 h 29 min
Bit rate                       : 63 b/s
Count of elements              : 1193
Stream size                    : 42.1 KiB (0%)
Language                       : Malay
Default                        : No
Forced                         : No

Text #9
ID                             : 12
Format                         : UTF-8
Codec ID                       : S_TEXT/UTF8
Codec ID/Info                  : UTF-8 Plain Text
Duration                       : 1 h 28 min
Bit rate                       : 44 b/s
Count of elements              : 984
Stream size                    : 29.1 KiB (0%)
Language                       : Dutch
Default                        : No
Forced                         : No

Text #10
ID                             : 13
Format                         : UTF-8
Codec ID                       : S_TEXT/UTF8
Codec ID/Info                  : UTF-8 Plain Text
Duration                       : 1 h 29 min
Bit rate                       : 126 b/s
Count of elements              : 1139
Stream size                    : 83.3 KiB (0%)
Language                       : Thai
Default                        : No
Forced                         : No

Text #11
ID                             : 14
Format                         : UTF-8
Codec ID                       : S_TEXT/UTF8
Codec ID/Info                  : UTF-8 Plain Text
Duration                       : 1 h 29 min
Bit rate                       : 87 b/s
Count of elements              : 1198
Stream size                    : 57.9 KiB (0%)
Language                       : Vietnamese
Default                        : No
Forced                         : No

Menu
00:00:00.129                   : en:Opening Titles
00:01:24.546                   : en:Buzz's Mission
00:04:49.209                   : en:Woody's Last Hat
00:07:36.751                   : en:It's Buster!
00:10:41.686                   : en:The Nightmare
00:11:55.468                   : en:Wheezy
00:12:48.062                   : en:Yard Sale
00:15:30.767                   : en:Kidnapped!
00:18:16.807                   : en:Who Stole Woody?
00:20:18.554                   : en:The Roundup Gang
00:24:14.999                   : en:Operation Rescue Woody
00:25:55.349                   : en:"Woody's Roundup"
00:30:33.001                   : en:Woody Loses His Arm
00:31:49.411                   : en:Buzz's Speech
00:32:52.432                   : en:Gettin the Arm
00:36:45.957                   : en:Crossing the Road
00:39:10.101                   : en:The Cleaner
00:39:53.853                   : en:Al's Toy Barn
00:41:07.302                   : en:Woody's Restoration
00:42:26.798                   : en:Buzz Switch
00:44:42.225                   : en:The Barbie Aisle
00:46:59.528                   : en:Jessie's Story ("When She Loved Me")
00:53:24.747                   : en:The Toys Find Al
00:56:20.881                   : en:Into the Vents
01:01:11.004                   : en:Sheriff Woody
01:02:14.901                   : en:To the Rescue!
01:04:24.864                   : en:Woody Stays
01:08:01.372                   : en:Stinky Pete
01:09:52.942                   : en:Zurg Battle
01:12:28.431                   : en:To the Airport
01:14:59.457                   : en:Woody vs. Prospector
01:17:29.148                   : en:Saving Jessie
01:19:47.244                   : en:Takeoff!
01:21:36.770                   : en:Welcome Home
01:25:49.940                   : en:End Credits


迅雷下载资源速度为零或资源敏感被和谐时,推荐使用qBittorrent等下载软件,有条件的推荐115更好的下载软件!

下载地址

游客,如果您要查看本帖隐藏内容请回复





.

上一篇:玩具总动员 (内封简繁中字)/ Toy Story (1995) 4K高清版本下载
下一篇:玩具总动员3(内封简繁中字) / Toy Story 3 (2010) 4K高清版本下载
回复

使用道具 举报

0

主题

1285

帖子

3875

积分

4K家园VIP

Rank: 9Rank: 9Rank: 9

积分
3875
发表于 2021-12-27 18:19:47 | 显示全部楼层
啥玩应呀
回复 支持 反对

使用道具 举报

0

主题

7280

帖子

1万

积分

4K家园VIP

Rank: 9Rank: 9Rank: 9

积分
16651
发表于 2021-12-27 18:24:33 | 显示全部楼层
太好啦&萬分感謝版主的無私發佈分享%
回复 支持 反对

使用道具 举报

1

主题

1247

帖子

3759

积分

4K家园VIP

Rank: 9Rank: 9Rank: 9

积分
3759
发表于 2021-12-28 13:49:37 | 显示全部楼层
回复 支持 反对

使用道具 举报

2

主题

1348

帖子

4068

积分

4K家园VIP

Rank: 9Rank: 9Rank: 9

积分
4068
发表于 2021-12-29 09:26:10 | 显示全部楼层
看起来不错
回复 支持 反对

使用道具 举报

36

主题

1370

帖子

3924

积分

4K家园VIP

Rank: 9Rank: 9Rank: 9

积分
3924
发表于 2021-12-29 10:02:25 | 显示全部楼层
顶起出售广告位
回复 支持 反对

使用道具 举报

2

主题

1599

帖子

4397

积分

4K家园VIP

Rank: 9Rank: 9Rank: 9

积分
4397
发表于 2021-12-30 02:28:40 | 显示全部楼层
沙发???
回复 支持 反对

使用道具 举报

0

主题

8

帖子

59

积分

4K家园VIP

Rank: 9Rank: 9Rank: 9

积分
59
发表于 2021-12-31 20:21:21 | 显示全部楼层
一下个看看,谢谢
回复 支持 反对

使用道具 举报

0

主题

5

帖子

21

积分

新手上路

Rank: 1

积分
21
发表于 2022-1-1 20:04:06 来自手机 | 显示全部楼层
哈哈哈哈哈哈哈
回复 支持 反对

使用道具 举报

0

主题

5

帖子

21

积分

新手上路

Rank: 1

积分
21
发表于 2022-1-1 20:04:20 来自手机 | 显示全部楼层
哈哈哈哈哈哈哈
回复 支持 反对

使用道具 举报

您需要登录后才可以回帖 登录 | 立即注册

本版积分规则

精彩图文
Archiver|手机版|TAG|Sitemap|新帖|专题|联系我们:邮箱: 4kjia.com@gmail.com   

4k家园   ©2019