[4K电影] 母亲节幽会 / Mothering Sunday (2021) 4K高清版下载

[复制链接]

1339

主题

1444

帖子

1万

积分

超级版主

Rank: 8Rank: 8

积分
11232
 楼主| 发表于 2021-12-27 20:21:37 | 显示全部楼层 |阅读模式
母亲节幽会.png

◎译  名 母亲节幽会
◎片  名 Mothering Sunday
◎年  代 2021
◎产  地 英国
◎类  别 剧情 / 爱情
◎语  言 英语
◎上映日期 2021-07-09(戛纳电影节) / 2021-11-19(美国)
◎IMDB 评分  6.3/10 from 552 users
◎IMDb链接 https://www.imdb.com/title/tt12229370/
◎豆瓣评分 6.5/10 from 62 users
◎豆瓣链接 https://movie.douban.com/subject/35118245/
◎片  长 110分钟
◎导  演 伊娃·于颂 Eva Husson
◎编  剧 格雷厄姆·斯维夫特 Graham Swift / 爱丽丝·伯奇 Alice Birch
◎主  演 奥利维娅·科尔曼 Olivia Colman
      科林·费尔斯 Colin Firth
      乔什·奥康纳 Josh O'Connor
      奥黛莎·杨 Odessa Young
      格兰达·杰克逊 Glenda Jackson
      索佩·迪瑞苏 Sope Dirisu
      西蒙·谢泼德 Simon Shepherd
      阿尔伯特·威灵 Albert Welling
      迪诺·布加迪 Deano Bugatti


◎简  介

  奥黛莎·杨、乔什·奥康纳、奥利维娅·科尔曼、科林·费斯将出演新片[母亲节幽会](Mothering Sunday,暂译)。本片由伊娃·于颂([太阳之女])执导,爱丽丝·伯奇([麦克白夫人]、《普通人》)将撰写改编自格雷厄姆·斯维夫特小说的剧本。故事发生在1924年,尼文夫妇(费斯、科尔曼饰)去参加了邻居家儿子保罗(奥康纳饰)与艾玛订婚的午餐会,尼文家的女佣简(杨饰)因此可以放假去庆祝母亲节,她为自己的自由感到高兴。近7年来,她乐此不疲、毫无愧色地做了保罗的情人。这次他们终于可以在保罗的卧室里第一次见面了。今天将是他们作为恋人的最后一次见面。本片计划将于今秋在英国开机。
General
Complete name                  : E:\4K@电影\Mothering.Sunday.2021.2160p.WEBRip.x265.10bit.SDR.DDP5.1-NOGRP.mkv
Format                         : Matroska
Format version                 : Version 4
File size                      : 14.6 GiB
Duration                       : 1 h 44 min
Overall bit rate               : 20.1 Mb/s
Encoded date                   : UTC 2021-12-27 00:04:59
Writing application            : mkvmerge v45.0.0 ('Heaven in Pennies') 64-bit
Writing library                : libebml v1.3.10 + libmatroska v1.5.2
IsTruncated                    : Yes

Video
ID                             : 1
Format                         : HEVC
Format/Info                    : High Efficiency Video Coding
Format profile                 : Main 10@L5@High
Codec ID                       : V_MPEGH/ISO/HEVC
Duration                       : 1 h 44 min
Bit rate                       : 19.3 Mb/s
Width                          : 3 576 pixels
Height                         : 2 152 pixels
Display aspect ratio           : 5:3
Frame rate mode                : Constant
Frame rate                     : 23.976 (24000/1001) FPS
Color space                    : YUV
Chroma subsampling             : 4:2:0
Bit depth                      : 10 bits
Bits/(Pixel*Frame)             : 0.104
Stream size                    : 14.1 GiB (96%)
Default                        : Yes
Forced                         : No
Color range                    : Limited
Color primaries                : BT.709
Transfer characteristics       : BT.709
Matrix coefficients            : BT.709

Audio
ID                             : 2
Format                         : AC-3
Format/Info                    : Audio Coding 3
Commercial name                : Dolby Digital
Codec ID                       : A_AC3
Duration                       : 1 h 44 min
Bit rate mode                  : Constant
Bit rate                       : 384 kb/s
Channel(s)                     : 6 channels
Channel layout                 : L R C LFE Ls Rs
Sampling rate                  : 48.0 kHz
Frame rate                     : 31.250 FPS (1536 SPF)
Compression mode               : Lossy
Stream size                    : 287 MiB (2%)
Title                          : English
Language                       : English
Service kind                   : Complete Main
Default                        : No
Forced                         : No

迅雷下载资源速度为零或资源敏感被和谐时,推荐使用qBittorrent等下载软件,有条件的推荐115更好的下载软件!

下载地址


游客,如果您要查看本帖隐藏内容请回复





.


上一篇:哈利·波特与死亡圣器(上) (内封中字) (2001) 4K高清版下载
下一篇:加勒比海盗5:死无对证 (2017) 4K高清版下载
回复

使用道具 举报

56

主题

1427

帖子

4115

积分

4K家园VIP

Rank: 9Rank: 9Rank: 9

积分
4115
发表于 2021-12-27 20:21:41 | 显示全部楼层
前排支持下
回复 支持 反对

使用道具 举报

0

主题

7280

帖子

1万

积分

4K家园VIP

Rank: 9Rank: 9Rank: 9

积分
16651
发表于 2021-12-27 20:32:28 | 显示全部楼层
太好啦&萬分感謝版主的無私發佈分享%
回复 支持 反对

使用道具 举报

2

主题

1330

帖子

3856

积分

4K家园VIP

Rank: 9Rank: 9Rank: 9

积分
3856
发表于 2021-12-28 03:12:37 | 显示全部楼层
支持支持再支持
回复 支持 反对

使用道具 举报

0

主题

2

帖子

23

积分

新手上路

Rank: 1

积分
23
发表于 2021-12-28 10:31:49 | 显示全部楼层
看呢必须滴
回复 支持 反对

使用道具 举报

57

主题

1511

帖子

4383

积分

4K家园VIP

Rank: 9Rank: 9Rank: 9

积分
4383
发表于 2022-1-2 12:48:07 | 显示全部楼层
站位支持
回复 支持 反对

使用道具 举报

34

主题

1510

帖子

4240

积分

4K家园VIP

Rank: 9Rank: 9Rank: 9

积分
4240
发表于 2022-1-2 22:11:13 | 显示全部楼层
我只是路过,不发表意见
回复 支持 反对

使用道具 举报

0

主题

1193

帖子

3591

积分

4K家园VIP

Rank: 9Rank: 9Rank: 9

积分
3591
发表于 2022-1-3 08:12:32 | 显示全部楼层
感谢推荐,确实不错
回复 支持 反对

使用道具 举报

您需要登录后才可以回帖 登录 | 立即注册

本版积分规则

精彩图文
Archiver|手机版|TAG|Sitemap|新帖|专题|联系我们:邮箱: 4kjia.com@gmail.com   

4k家园   ©2019