[4K电影] 国家冠军 /National Champions (2021) 4K高清版本下载

[复制链接]

1323

主题

1428

帖子

1万

积分

超级版主

Rank: 8Rank: 8

积分
11131
 楼主| 发表于 2021-12-28 19:46:47 | 显示全部楼层 |阅读模式

QQ图片20211228193019_副本.png

◎译  名 国家冠军 / 罢工怒潮
◎片  名 National Champions
◎年  代 2021
◎产  地 美国
◎类  别 剧情
◎语  言 英语
◎上映日期 2021-12-10(美国)
◎IMDb评分  5.8/10 from 199 users
◎IMDb链接  https://www.imdb.com/title/tt14547524
◎豆瓣评分 0/10 from 0 users
◎豆瓣链接 https://movie.douban.com/subject/35511590/
◎片  长 147分钟
◎导  演 里克·罗曼·沃夫
◎编  剧 亚当·梅维斯
◎主  演 蒂莫西·奥利芬特
                   J·K·西蒙斯
                   亚历山大·路德韦格
                   杰弗里·多诺万
                   里尔·莱尔·哈瓦瑞
                   乌佐·阿杜巴
                   克里斯汀·肯诺恩斯
                   大卫·科恩查内
                   蒂姆·布雷克·尼尔森
                   安德鲁·巴切勒
                   史蒂芬·詹姆士
                   大卫·马尔登那多
                   Erica Rowell Green
                   Fabian Blache III
                   Tony Winters
                   French Montana
                   特雷·黑尔
                   内德·尤瑟夫
                   Mike Greenberg



◎简  介

         这位明星四分卫在本年度最大的比赛前数小时点燃了一场球员罢工,以争取公平的补偿、平等和对学生运动员的尊重。
General
Complete name                  : H:\4K@电影\National.Champions.2021.2160p.AMZN.WEB-DL.DDP5.1.HDR.HEVC-CMRG.mkv
Format                         : Matroska
Format version                 : Version 4
File size                      : 12.4 GiB
Duration                       : 1 h 56 min
Overall bit rate               : 15.3 Mb/s
Encoded date                   : UTC 2021-12-28 05:06:47
Writing application            : mkvmerge v63.0.0 ('Everything') 64-bit
Writing library                : libebml v1.4.2 + libmatroska v1.6.4

Video
ID                             : 1
Format                         : HEVC
Format/Info                    : High Efficiency Video Coding
Format profile                 : Main 10@L5@Main
HDR format                     : SMPTE ST 2094 App 4, Version 1, HDR10+ Profile B compatible
Codec ID                       : V_MPEGH/ISO/HEVC
Duration                       : 1 h 56 min
Bit rate                       : 14.3 Mb/s
Width                          : 3 840 pixels
Height                         : 1 600 pixels
Display aspect ratio           : 2.40:1
Frame rate mode                : Constant
Frame rate                     : 23.976 (24000/1001) FPS
Color space                    : YUV
Chroma subsampling             : 4:2:0
Bit depth                      : 10 bits
Bits/(Pixel*Frame)             : 0.097
Stream size                    : 11.6 GiB (94%)
Default                        : Yes
Forced                         : No
Color range                    : Limited
Color primaries                : BT.2020
Transfer characteristics       : PQ
Matrix coefficients            : BT.2020 non-constant
Mastering display color primar : Display P3
Mastering display luminance    : min: 0.0001 cd/m2, max: 1000 cd/m2
Maximum Content Light Level    : 831 cd/m2
Maximum Frame-Average Light Le : 297 cd/m2

Audio
ID                             : 2
Format                         : E-AC-3
Format/Info                    : Enhanced AC-3
Commercial name                : Dolby Digital Plus
Codec ID                       : A_EAC3
Duration                       : 1 h 56 min
Bit rate mode                  : Constant
Bit rate                       : 640 kb/s
Channel(s)                     : 6 channels
Channel layout                 : L R C LFE Ls Rs
Sampling rate                  : 48.0 kHz
Frame rate                     : 31.250 FPS (1536 SPF)
Compression mode               : Lossy
Stream size                    : 532 MiB (4%)
Title                          : English
Language                       : English
Service kind                   : Complete Main
Default                        : No
Forced                         : No

Text #1
ID                             : 3
Format                         : UTF-8
Codec ID                       : S_TEXT/UTF8
Codec ID/Info                  : UTF-8 Plain Text
Title                          : English [SDH]
Language                       : English
Default                        : No
Forced                         : No

Text #2
ID                             : 4
Format                         : UTF-8
Codec ID                       : S_TEXT/UTF8
Codec ID/Info                  : UTF-8 Plain Text
Title                          : English
Language                       : English
Default                        : No
Forced                         : No

Text #3
ID                             : 5
Format                         : UTF-8
Codec ID                       : S_TEXT/UTF8
Codec ID/Info                  : UTF-8 Plain Text
Title                          : Spanish
Language                       : Spanish
Default                        : No
Forced                         : No


迅雷下载资源速度为零或资源敏感被和谐时,推荐使用qBittorrent等下载软件,有条件的推荐115更好的下载软件!

下载地址


游客,如果您要查看本帖隐藏内容请回复

游客,如果您要查看本帖隐藏内容请回复

游客,如果您要查看本帖隐藏内容请回复








上一篇:加勒比海盗5:死无对证 (2017) 4K高清版下载
下一篇:降临 / Arrival (2016) 4K高清版本下载
回复

使用道具 举报

49

主题

1501

帖子

4335

积分

4K家园VIP

Rank: 9Rank: 9Rank: 9

积分
4335
发表于 2021-12-28 19:46:53 | 显示全部楼层
都不知道说的啥
回复 支持 反对

使用道具 举报

195

主题

1552

帖子

4258

积分

4K家园VIP

Rank: 9Rank: 9Rank: 9

积分
4258
发表于 2021-12-28 20:36:09 | 显示全部楼层
4K家园不错,希望这种资源越多越好
回复 支持 反对

使用道具 举报

0

主题

7236

帖子

1万

积分

4K家园VIP

Rank: 9Rank: 9Rank: 9

积分
16568
发表于 2021-12-28 21:06:20 | 显示全部楼层
太好啦&萬分感謝版主的無私發佈分享%
回复 支持 反对

使用道具 举报

1

主题

1169

帖子

3529

积分

4K家园VIP

Rank: 9Rank: 9Rank: 9

积分
3529
发表于 2021-12-28 21:20:37 | 显示全部楼层
前排支持下
回复 支持 反对

使用道具 举报

13

主题

1181

帖子

3515

积分

4K家园VIP

Rank: 9Rank: 9Rank: 9

积分
3515
发表于 2021-12-28 21:49:25 | 显示全部楼层
1v1飘过
回复 支持 反对

使用道具 举报

1

主题

1581

帖子

4385

积分

4K家园VIP

Rank: 9Rank: 9Rank: 9

积分
4385
发表于 2021-12-28 23:11:32 | 显示全部楼层
路过 帮顶 嘿嘿
回复 支持 反对

使用道具 举报

0

主题

2

帖子

9

积分

新手上路

Rank: 1

积分
9
发表于 2021-12-29 12:40:37 | 显示全部楼层
cccckankan
回复 支持 反对

使用道具 举报

0

主题

281

帖子

1109

积分

注册会员

Rank: 2

积分
1109
发表于 2021-12-29 12:57:06 | 显示全部楼层

Test, just a test

Hello. And Bye.
回复 支持 反对

使用道具 举报

0

主题

281

帖子

1109

积分

注册会员

Rank: 2

积分
1109
发表于 2021-12-29 12:58:05 | 显示全部楼层

Test, just a test


Hello. And Bye.
回复 支持 反对

使用道具 举报

您需要登录后才可以回帖 登录 | 立即注册

本版积分规则

精彩图文
Archiver|手机版|TAG|Sitemap|新帖|专题|联系我们:邮箱: 4kjia.com@gmail.com   

4k家园   ©2019