[4K电影] 国家宝藏:夺宝秘笈(内封繁体中字) (2007) 4K高清版本下载

[复制链接]

1339

主题

1444

帖子

1万

积分

超级版主

Rank: 8Rank: 8

积分
11232
 楼主| 发表于 2021-12-28 21:12:08 | 显示全部楼层 |阅读模式
本帖最后由 最爱4K哟 于 2021-12-29 16:58 编辑

国家宝藏:夺宝秘笈.jpg
◎译  名 国家宝藏:夺宝秘笈/国家宝藏:古籍秘辛(台)/国家宝藏2/国家宝藏2:秘密之书/惊天夺宝:世纪秘册(港)
◎片  名 National Treasure: Book of Secrets
◎年  代 2007
◎产  地 美国
◎类  别 喜剧 / 动作 / 悬疑 / 惊悚 / 冒险
◎语  言 英语,法语
◎上映日期 2007-12-21(美国) / 2008-03-17(中国大陆)
◎IMDb评分 6.5/10 from 215355 users
◎IMDb链接 https://www.imdb.com/title/tt0465234/
◎豆瓣评分 7.2/10 from 92863 users
◎豆瓣链接 https://movie.douban.com/subject/1607471/
◎片  长 124 分钟
◎导  演 乔·德特杜巴 Jon Turteltaub
◎编  剧 玛丽安·韦伯利 Marianne Wibberley / 科马克·韦伯利 Cormac Wibberley / 格雷戈里·波伊莱尔 Gregory Poirier / 泰德·艾略特 Ted Elliott / 特里·鲁西奥 Terry Rossio / 吉姆·科夫 Jim Kouf / Oren Aviv / Charles Segars
◎主  演 尼古拉斯·凯奇 Nicolas Cage
      贾斯汀·巴萨 Justin Bartha
      黛安·克鲁格 Diane Kruger
      强·沃特 Jon Voight
      海伦·米伦 Helen Mirren
      艾德·哈里斯 Ed Harris
      哈威·凯特尔 Harvey Keitel
      布鲁斯·格林伍德 Bruce Greenwood
      泰·布利尔 Ty Burrell
      Michael Maize
      蒂莫西·V·墨菲 Timothy V. Murphy
      艾丽莎·科波拉 Alicia Coppola
      阿曼德·里斯科 Armando Riesco
      阿尔伯特·海尔 Albert Hall
      乔·格拉什 Joel Gretsch
      克里斯蒂安·卡玛戈 Christian Camargo
      布兰特·布里斯科 Brent Briscoe
      比利·安格 Billy Unger
      布莱德·罗 Brad Rowe
      扎克瑞·戈登 Zachary Gordon
      皮特·伍德瓦德 Peter Woodward
      奥利弗·缪尔海德 Oliver Muirhead
      拉里·塞达尔 Larry Cedar
      Billy Devlin
      Alicia Leigh Willis
      娜塔莉·德莱福斯 Natalie Dreyfuss
      Michael Stone Forrest
      格兰特·汤普森 Grant Thompson
      兰迪·特拉维斯 Randy Travis
      Stephen Hibbert
      Jonathan Emmett
      格伦·贝克 Glenn Beck
      迪米特里·格里特萨斯 Demetri Goritsas
      戴维·尤里 David Ury
      彼得·迈尔斯 Peter Miles
      本·霍姆伍德 Ben Homewood
      Mike Altieri
      迈克·D·安德森 Mike D. Anderson
      Mark Barth
      Nora Bauer
      塔季扬娜·布鲁切尔 Tatjana Bluchel
      埃莱娜·卡多纳 Hélène Cardona
      Sharon Carpenter-Rose
      Tim Colmus
      Aaron Cornelison
      Bruce Allen Dawson
      斯卡利·德尔佩拉 Scali Delpeyrat
      凯莉·多森 Kaylee Dodson
      Liam Ferguson
      Chad Hundley
      Aaron Zachary Philips
      Savannah French
      唐沃特利 Don Whatley
      唐·阿伯纳西 Don Abernathy
      Jonathan Linsley
      Todd A. Langenfeld
      Forbes KB
      John R. Price II
      Chris Luensman
      Patrick Michael Strange
      马克·卡西米尔·戴妮奇斯 Mark Casimir Dyniewicz
      圭洛姆·加里尼 Guillaume Gallienne
      麦肯泽·布鲁克·史密斯 Mackenzie Brooke Smith
      Kevin Leigh
      Gayle Yiotis
      Tom Townsend
      Roger Sands



◎简  介

  冒险家本?盖茨(尼古拉斯?凯奇饰)是次要挑战更艰难的探险寻宝之旅。美国第16任总统亚伯拉罕? 林肯之死一直是美国历史上的一宗悬案,据调查,凶手约翰?沃克斯?布斯实际是受人唆使犯下惊天命案。盖茨参加一次公开演讲,台下的一位叫米奇?威尔金森(艾德?哈里斯饰)的男子宣称,盖茨的祖父与林肯之死有千丝万缕的联系。于是盖茨开始调查约翰?布斯相关的线索,发现一本叫“国家密宗”的书,是解答一切问题的关键。但国家密宗只有美国总统本人知道其所在,为了探寻真相,盖茨不惜铤而走险,绑架总统。

◎获奖情况

  第17届MTV电影奖 ?(2008)
  MTV电影奖年度电影(提名)
General
Complete name                  : H:\4K@电影\National.Treasure.2.Book.of.Secrets.2007.2160p.WEB-DL.TrueHD.5.1.DV.HEVC-NOSiViD.mkv
Format                         : Matroska
Format version                 : Version 4
File size                      : 25.1 GiB
Duration                       : 2 h 4 min
Overall bit rate mode          : Variable
Overall bit rate               : 28.9 Mb/s
Movie name                     : National Treasure 2 Book of Secrets (2007)
Encoded date                   : UTC 2021-11-28 06:12:51
Writing application            : mkvmerge v63.0.0 ('Everything') 64-bit
Writing library                : libebml v1.4.2 + libmatroska v1.6.4
IMDB                           : tt0465234
TMDB                           : movie/6637

Video
ID                             : 1
Format                         : HEVC
Format/Info                    : High Efficiency Video Coding
Format profile                 : Main 10@L5@High
HDR format                     : Dolby Vision, Version 1.0, dvhe.05.06, BL+RPU
Codec ID                       : V_MPEGH/ISO/HEVC
Duration                       : 2 h 4 min
Bit rate                       : 24.5 Mb/s
Width                          : 3 840 pixels
Height                         : 1 600 pixels
Display aspect ratio           : 2.40:1
Frame rate mode                : Constant
Frame rate                     : 23.976 (24000/1001) FPS
Color space                    : YUV
Chroma subsampling             : 4:2:0
Bit depth                      : 10 bits
Bits/(Pixel*Frame)             : 0.167
Stream size                    : 21.3 GiB (85%)
Default                        : Yes
Forced                         : No

Audio #1
ID                             : 2
Format                         : MLP FBA
Format/Info                    : Meridian Lossless Packing FBA
Commercial name                : Dolby TrueHD
Codec ID                       : A_TRUEHD
Duration                       : 2 h 4 min
Bit rate mode                  : Variable
Bit rate                       : 3 614 kb/s
Maximum bit rate               : 5 247 kb/s
Channel(s)                     : 6 channels
Channel layout                 : L R C LFE Ls Rs
Sampling rate                  : 48.0 kHz
Frame rate                     : 1 200.000 FPS (40 SPF)
Compression mode               : Lossless
Stream size                    : 3.14 GiB (13%)
Title                          : TrueHD 5.1
Language                       : English
Default                        : Yes
Forced                         : No

Audio #2
ID                             : 3
Format                         : AC-3
Format/Info                    : Audio Coding 3
Commercial name                : Dolby Digital
Codec ID                       : A_AC3
Duration                       : 2 h 4 min
Bit rate mode                  : Constant
Bit rate                       : 640 kb/s
Channel(s)                     : 6 channels
Channel layout                 : L R C LFE Ls Rs
Sampling rate                  : 48.0 kHz
Frame rate                     : 31.250 FPS (1536 SPF)
Compression mode               : Lossy
Delay relative to video        : 16 ms
Stream size                    : 570 MiB (2%)
Title                          : AC-3 5.1
Language                       : English
Service kind                   : Complete Main
Default                        : No
Forced                         : No

Text #1
ID                             : 4
Format                         : UTF-8
Codec ID                       : S_TEXT/UTF8
Codec ID/Info                  : UTF-8 Plain Text
Duration                       : 1 h 55 min
Bit rate                       : 67 b/s
Count of elements              : 1575
Stream size                    : 57.4 KiB (0%)
Language                       : English
Default                        : No
Forced                         : No

Text #2
ID                             : 5
Format                         : UTF-8
Codec ID                       : S_TEXT/UTF8
Codec ID/Info                  : UTF-8 Plain Text
Duration                       : 1 h 56 min
Bit rate                       : 70 b/s
Count of elements              : 1668
Stream size                    : 60.2 KiB (0%)
Title                          : SDH
Language                       : English
Default                        : No
Forced                         : No

Text #3
ID                             : 6
Format                         : UTF-8
Codec ID                       : S_TEXT/UTF8
Codec ID/Info                  : UTF-8 Plain Text
Duration                       : 1 h 58 min
Bit rate                       : 53 b/s
Count of elements              : 1485
Stream size                    : 46.8 KiB (0%)
Title                          : 中文(繁体)
Language                       : 中文
Default                        : No
Forced                         : No


Text #4
ID                             : 7
Format                         : UTF-8
Codec ID                       : S_TEXT/UTF8
Codec ID/Info                  : UTF-8 Plain Text
Duration                       : 1 h 56 min
Bit rate                       : 62 b/s
Count of elements              : 1493
Stream size                    : 53.4 KiB (0%)
Language                       : Danish
Default                        : No
Forced                         : No

Text #5
ID                             : 8
Format                         : UTF-8
Codec ID                       : S_TEXT/UTF8
Codec ID/Info                  : UTF-8 Plain Text
Duration                       : 1 h 57 min
Bit rate                       : 61 b/s
Count of elements              : 1498
Stream size                    : 52.7 KiB (0%)
Language                       : Finnish
Default                        : No
Forced                         : No

Text #6
ID                             : 9
Format                         : UTF-8
Codec ID                       : S_TEXT/UTF8
Codec ID/Info                  : UTF-8 Plain Text
Duration                       : 1 h 57 min
Bit rate                       : 53 b/s
Count of elements              : 1391
Stream size                    : 46.1 KiB (0%)
Language                       : French
Default                        : No
Forced                         : No

Text #7
ID                             : 10
Format                         : UTF-8
Codec ID                       : S_TEXT/UTF8
Codec ID/Info                  : UTF-8 Plain Text
Duration                       : 1 h 57 min
Bit rate                       : 88 b/s
Count of elements              : 1502
Stream size                    : 76.9 KiB (0%)
Language                       : Hebrew
Default                        : No
Forced                         : No

Text #8
ID                             : 11
Format                         : UTF-8
Codec ID                       : S_TEXT/UTF8
Codec ID/Info                  : UTF-8 Plain Text
Duration                       : 1 h 56 min
Bit rate                       : 54 b/s
Count of elements              : 1479
Stream size                    : 46.0 KiB (0%)
Language                       : Indonesian
Default                        : No
Forced                         : No

Text #9
ID                             : 12
Format                         : UTF-8
Codec ID                       : S_TEXT/UTF8
Codec ID/Info                  : UTF-8 Plain Text
Duration                       : 1 h 56 min
Bit rate                       : 66 b/s
Count of elements              : 1549
Stream size                    : 56.9 KiB (0%)
Language                       : Malay
Default                        : No
Forced                         : No

Text #10
ID                             : 13
Format                         : UTF-8
Codec ID                       : S_TEXT/UTF8
Codec ID/Info                  : UTF-8 Plain Text
Duration                       : 1 h 56 min
Bit rate                       : 52 b/s
Count of elements              : 1396
Stream size                    : 44.8 KiB (0%)
Language                       : Norwegian
Default                        : No
Forced                         : No

Text #11
ID                             : 14
Format                         : UTF-8
Codec ID                       : S_TEXT/UTF8
Codec ID/Info                  : UTF-8 Plain Text
Duration                       : 1 h 57 min
Bit rate                       : 53 b/s
Count of elements              : 1421
Stream size                    : 46.6 KiB (0%)
Language                       : Polish
Default                        : No
Forced                         : No

Text #12
ID                             : 15
Format                         : UTF-8
Codec ID                       : S_TEXT/UTF8
Codec ID/Info                  : UTF-8 Plain Text
Duration                       : 1 h 57 min
Bit rate                       : 105 b/s
Count of elements              : 1624
Stream size                    : 91.0 KiB (0%)
Language                       : Russian
Default                        : No
Forced                         : No

Text #13
ID                             : 16
Format                         : UTF-8
Codec ID                       : S_TEXT/UTF8
Codec ID/Info                  : UTF-8 Plain Text
Duration                       : 1 h 57 min
Bit rate                       : 53 b/s
Count of elements              : 1401
Stream size                    : 46.5 KiB (0%)
Language                       : Swedish
Default                        : No
Forced                         : No

Text #14
ID                             : 17
Format                         : UTF-8
Codec ID                       : S_TEXT/UTF8
Codec ID/Info                  : UTF-8 Plain Text
Duration                       : 1 h 57 min
Bit rate                       : 133 b/s
Count of elements              : 1500
Stream size                    : 116 KiB (0%)
Language                       : Thai
Default                        : No
Forced                         : No

Text #15
ID                             : 18
Format                         : UTF-8
Codec ID                       : S_TEXT/UTF8
Codec ID/Info                  : UTF-8 Plain Text
Duration                       : 1 h 57 min
Bit rate                       : 66 b/s
Count of elements              : 1501
Stream size                    : 57.3 KiB (0%)
Language                       : Turkish
Default                        : No
Forced                         : No

Text #16
ID                             : 19
Format                         : UTF-8
Codec ID                       : S_TEXT/UTF8
Codec ID/Info                  : UTF-8 Plain Text
Duration                       : 1 h 57 min
Bit rate                       : 47 b/s
Count of elements              : 1466
Stream size                    : 41.1 KiB (0%)
Title                          : 中文(广东话)
Language                       : 中文
Default                        : No
Forced                         : No


Menu
00:00:00.000                   : en:The War is Over
00:04:58.877                   : en:The Missing Page
00:08:26.751                   : en:Breaking In
00:16:55.259                   : en:The Debt That All Men Pay
00:22:01.482                   : en:The Lady's Clue
00:26:02.931                   : en:Making a Scene at the Palace
00:36:46.574                   : en:The Streets of London
00:43:02.450                   : en:Meeting Dr. Appleton
00:50:13.547                   : en:A Date at the White House
00:55:27.444                   : en:Riley's Theory
01:00:00.925                   : en:Happy Birthday, Mr. President
01:11:22.523                   : en:The Book of Secrets
01:20:13.554                   : en:Another Translation
01:24:42.280                   : en:An Island of Stone
01:30:40.805                   : en:Only One Way Out
01:40:06.871                   : en:The City of Gold
01:47:17.426                   : en:Escaping Cibola
01:57:20.069                   : en:End Credits

迅雷下载资源速度为零或资源敏感被和谐时,推荐使用qBittorrent等下载软件,有条件的推荐115更好的下载软件

下载地址

游客,如果您要查看本帖隐藏内容请回复

游客,如果您要查看本帖隐藏内容请回复





.

上一篇:哈利·波特与凤凰社 (内封简繁中字) (2007) 4K高清版本下载
下一篇:美食总动员 / Ratatouille (2007) 4K高清版本下载
回复

使用道具 举报

4

主题

1272

帖子

3836

积分

4K家园VIP

Rank: 9Rank: 9Rank: 9

积分
3836
发表于 2021-12-28 21:12:13 | 显示全部楼层
珍爱生命,果断回帖。
回复 支持 反对

使用道具 举报

0

主题

7280

帖子

1万

积分

4K家园VIP

Rank: 9Rank: 9Rank: 9

积分
16651
发表于 2021-12-28 21:26:29 | 显示全部楼层
國家寶藏☆奪寶秘笈4k
回复 支持 反对

使用道具 举报

匿名  发表于 2021-12-29 09:47:43
很不错的电影!
回复 支持 反对

使用道具

3

主题

1292

帖子

3894

积分

4K家园VIP

Rank: 9Rank: 9Rank: 9

积分
3894
发表于 6 天前 来自手机 | 显示全部楼层
没人回帖。。。我来个吧
回复 支持 反对

使用道具 举报

您需要登录后才可以回帖 登录 | 立即注册

本版积分规则

精彩图文
Archiver|手机版|TAG|Sitemap|新帖|专题|联系我们:邮箱: 4kjia.com@gmail.com   

4k家园   ©2019