[4K电影] 美食总动员 / Ratatouille (2007) 4K高清版本下载

[复制链接]

1339

主题

1444

帖子

1万

积分

超级版主

Rank: 8Rank: 8

积分
11232
 楼主| 发表于 2021-12-29 10:13:38 | 显示全部楼层 |阅读模式
本帖最后由 最爱4K哟 于 2021-12-29 17:05 编辑

美食总动员_副本.jpg

◎译  名 美食总动员/五星级大鼠(港)/小鼠大厨/料理鼠王(台)/蔬菜杂烩
◎片  名 Ratatouille
◎年  代 2007
◎产  地 美国
◎类  别 喜剧 / 动画 / 奇幻
◎语  言 英语,法语
◎上映日期 2007-06-29(美国) / 2007-10-19(中国大陆)
◎IMDb评分 8/10 from 626708 users
◎IMDb链接 https://www.imdb.com/title/tt0382932/
◎豆瓣评分 8.4/10 from 276837 users
◎豆瓣链接 https://movie.douban.com/subject/1793491/
◎片  长 111 分钟
◎导  演 布拉德·伯德 Brad Bird / 简·皮克瓦 Jan Pinkava
◎编  剧 布拉德·伯德 Brad Bird / 简·皮克瓦 Jan Pinkava / 鲍勃·彼德森 Bob Peterson / 吉姆·卡波比安科 Jim Capobianco
◎主  演 帕顿·奥斯瓦尔特 Patton Oswalt
      伊安·霍姆 Ian Holm
      卢·罗曼诺 Lou Romano
      布莱恩·丹内利 Brian Dennehy
      彼得·孙 Peter Sohn
      彼得·奥图尔 Peter O'Toole
      布拉德·加内特 Brad Garrett
      詹妮安·加罗法洛 Janeane Garofalo
      威尔·阿奈特 Will Arnett
      詹姆斯·瑞马尔 James Remar
      约翰·拉岑贝格 John Ratzenberger
      泰迪·牛顿 Teddy Newton
      托尼·弗希勒 Tony Fucile
      杰克·斯坦菲尔德 Jake Steinfeld
      布拉德·伯德 Brad Bird
      林赛·柯林斯 Lindsey Collins
      布拉德·刘易斯 Brad Lewis
      洛丽·理查德森 Lori Richardson
      迈克·吉亚奇诺 Michael Giacchino
      何炅 Jiong He
      王心凌 Cyndi Wang
      张栋梁 Nicholas Teo
      张磊 Lei Zhang
      许杰辉 Chieh-Hui Hsu


◎简  介

  小老鼠雷米在嗅觉方面有着无与伦比的天赋,不想过与垃圾堆为伴的生活,心怀成为五星大厨的梦想。

  一个偶然的机会,他认识了古斯特餐厅的学徒林奎尼,这个倒霉的学徒生性害羞,在厨艺上更是没有什么天赋,并且遭到餐厅大厨的排挤,即将被解雇。这一人一鼠结成了奇特的联盟:雷米奉献自己极富创造力的大脑。操作林奎尼前台“表演”。

  在雷米的帮助下,林奎尼不但成为新的“天才厨师”,获得了美女同事的爱情,还挫败了大厨的阴谋,成为古斯特餐厅的合法继承人。突如起来的成功让林奎尼有些不知所措,想摆脱自己的傀儡身份,把雷米赶出了厨房。

  古斯特餐厅的成功,引起了苛刻的美食评论家科隆的注意,准备一尝林奎尼的手艺,重新为餐厅评定星级;而不甘失败的前大厨,蠢蠢欲动,想要找到林奎尼一夜成名的秘密。失去了雷米,林奎尼该如何面对这些问题……

◎获奖情况

  第80届奥斯卡金像奖 ?(2008)
  最佳原创剧本(提名) 简·皮克瓦?/?布拉德·伯德
  最佳动画长片 布拉德·伯德
  最佳混音(提名) 兰迪·汤姆?/?道克·凯恩?/?迈克尔·斯曼内科
  最佳音效剪辑(提名) 兰迪·汤姆?/?迈克尔·席维斯
  最佳原创配乐(提名) 迈克·吉亚奇诺

  第61届英国电影学院奖 ?(2008)
  电影奖最佳动画片 布拉德·伯德

  第35届动画安妮奖 ?(2008)
  最佳动画长片
  最佳导演 布拉德·伯德
  最佳编剧 布拉德·伯德
  最佳配音 伊安·霍姆
  最佳配音(提名) 詹妮安·加罗法洛?/?帕顿·奥斯瓦尔特
  最佳配乐 迈克·吉亚奇诺
  最佳分镜 泰德·马托特
  最佳艺术指导 哈雷·杰斯普
  最佳动画角色(提名) MichalMakarewicz
  最佳角色设计 卡特·戈德里奇
  最佳动画效果(提名) GaryBruins?/?乔恩·雷施

  第8届美国电影学会奖 ?(2007)
  年度佳片

General
Complete name                  : E:\4K@电影\Ratatouille.2007.2160p.WEB-DL.TrueHD.Atmos.7.1.DV.HEVC-NOSiViD.mkv
Format                         : Matroska
Format version                 : Version 4
File size                      : 22.2 GiB
Duration                       : 1 h 51 min
Overall bit rate mode          : Variable
Overall bit rate               : 28.5 Mb/s
Movie name                     : Ratatouille (2007)
Encoded date                   : UTC 2021-11-23 18:24:41
Writing application            : mkvmerge v63.0.0 ('Everything') 64-bit
Writing library                : libebml v1.4.2 + libmatroska v1.6.4
IMDB                           : tt0382932
TMDB                           : movie/2062

Video
ID                             : 1
Format                         : HEVC
Format/Info                    : High Efficiency Video Coding
Format profile                 : Main 10@L5@High
HDR format                     : Dolby Vision, Version 1.0, dvhe.05.06, BL+RPU
Codec ID                       : V_MPEGH/ISO/HEVC
Duration                       : 1 h 51 min
Bit rate                       : 20.5 Mb/s
Width                          : 3 840 pixels
Height                         : 1 608 pixels
Original height                : 1 606 pixels
Display aspect ratio           : 2.40:1
Original display aspect ratio  : 2.40:1
Frame rate mode                : Constant
Frame rate                     : 23.976 (24000/1001) FPS
Color space                    : YUV
Chroma subsampling             : 4:2:0
Bit depth                      : 10 bits
Bits/(Pixel*Frame)             : 0.138
Stream size                    : 15.9 GiB (72%)
Default                        : Yes
Forced                         : No

Audio #1
ID                             : 2
Format                         : MLP FBA 16-ch
Format/Info                    : Meridian Lossless Packing FBA with 16-channel presentation
Commercial name                : Dolby TrueHD with Dolby Atmos
Codec ID                       : A_TRUEHD
Duration                       : 1 h 51 min
Bit rate mode                  : Variable
Bit rate                       : 7 351 kb/s
Maximum bit rate               : 6 972 kb/s
Channel(s)                     : 8 channels
Channel layout                 : L R C LFE Ls Rs Lb Rb
Sampling rate                  : 48.0 kHz
Frame rate                     : 1 200.000 FPS (40 SPF)
Compression mode               : Lossless
Stream size                    : 5.70 GiB (26%)
Title                          : TrueHD Atmos 7.1
Language                       : English
Default                        : Yes
Forced                         : No
Number of dynamic objects      : 13
Bed channel count              : 1 channel
Bed channel configuration      : LFE

Audio #2
ID                             : 3
Format                         : AC-3
Format/Info                    : Audio Coding 3
Commercial name                : Dolby Digital
Format settings                : Dolby Surround EX
Codec ID                       : A_AC3
Duration                       : 1 h 51 min
Bit rate mode                  : Constant
Bit rate                       : 640 kb/s
Channel(s)                     : 6 channels
Channel layout                 : L R C LFE Ls Rs
Sampling rate                  : 48.0 kHz
Frame rate                     : 31.250 FPS (1536 SPF)
Compression mode               : Lossy
Delay relative to video        : 30 ms
Stream size                    : 508 MiB (2%)
Title                          : AC3 5.1-EX
Language                       : English
Service kind                   : Complete Main
Default                        : No
Forced                         : No

Text #1
ID                             : 4
Format                         : UTF-8
Codec ID                       : S_TEXT/UTF8
Codec ID/Info                  : UTF-8 Plain Text
Duration                       : 1 h 41 min
Bit rate                       : 66 b/s
Count of elements              : 1423
Stream size                    : 49.8 KiB (0%)
Language                       : English
Default                        : No
Forced                         : No

Text #2
ID                             : 5
Format                         : UTF-8
Codec ID                       : S_TEXT/UTF8
Codec ID/Info                  : UTF-8 Plain Text
Duration                       : 1 h 42 min
Bit rate                       : 72 b/s
Count of elements              : 1678
Stream size                    : 54.3 KiB (0%)
Title                          : SDH
Language                       : English
Default                        : No
Forced                         : No

Text #3
ID                             : 6
Format                         : UTF-8
Codec ID                       : S_TEXT/UTF8
Codec ID/Info                  : UTF-8 Plain Text
Duration                       : 1 h 42 min
Bit rate                       : 64 b/s
Count of elements              : 1325
Stream size                    : 48.3 KiB (0%)
Language                       : Spanish
Default                        : No
Forced                         : No

Menu
00:00:00.000                   : en:World's Best
00:01:16.000                   : en:This Is Me
00:06:30.000                   : en:Taste This
00:09:23.000                   : en:Caught
00:10:57.000                   : en:Exodus
00:13:30.000                   : en:Wall Rat
00:17:40.000                   : en:Big Break
00:19:38.000                   : ene Cooks
00:24:48.000                   : eniscovered
00:28:55.000                   : en:The Pact
00:33:04.000                   : en:First Day
00:38:13.000                   : en:Test Drive
00:40:31.000                   : en:Accidental Success
00:44:11.000                   : en:Cooking with Colette
00:46:59.000                   : en:Something New
00:51:24.000                   : en:Old and New Friends
00:57:00.000                   : en:Homecoming
00:59:33.000                   : en:Exterminator
01:00:54.000                   : en:Kiss & Vinegar
01:07:19.000                   : enosing Control
01:11:26.000                   : enaper Chase
01:15:28.000                   : en:Up & Down
01:19:25.000                   : en:Heist To See You
01:23:30.000                   : en:Big Night(mare)
01:25:30.000                   : en:Ego Orders
01:28:08.000                   : en:Truth Hurts
01:32:39.000                   : eninner Rush
01:35:41.000                   : en:Best Shot
01:38:50.000                   : en:The Review
01:40:49.000                   : ena Ratatouille
01:42:53.000                   : en:End Creditouilles

迅雷下载资源速度为零或资源敏感被和谐时,推荐使用qBittorrent等下载软件,有条件的推荐115更好的下载软件!

下载地址

游客,如果您要查看本帖隐藏内容请回复

游客,如果您要查看本帖隐藏内容请回复




.



上一篇:国家宝藏:夺宝秘笈(内封繁体中字) (2007) 4K高清版本下载
下一篇:赛车总动员 / Cars (2006) 4K高清版本下载
回复

使用道具 举报

3

主题

1345

帖子

4057

积分

4K家园VIP

Rank: 9Rank: 9Rank: 9

积分
4057
发表于 2021-12-29 10:13:45 来自手机 | 显示全部楼层
路过
回复 支持 反对

使用道具 举报

2

主题

1302

帖子

3718

积分

4K家园VIP

Rank: 9Rank: 9Rank: 9

积分
3718
发表于 2021-12-29 11:21:57 来自手机 | 显示全部楼层
鄙视楼下的顶帖没我快,哈哈
回复 支持 反对

使用道具 举报

1

主题

1381

帖子

3959

积分

4K家园VIP

Rank: 9Rank: 9Rank: 9

积分
3959
发表于 2021-12-29 12:14:04 | 显示全部楼层
哈哈,我只看看不说话
回复 支持 反对

使用道具 举报

0

主题

7280

帖子

1万

积分

4K家园VIP

Rank: 9Rank: 9Rank: 9

积分
16651
发表于 2021-12-29 12:42:01 | 显示全部楼层
太好啦&萬分感謝版主的無私發佈分享%
回复 支持 反对

使用道具 举报

52

主题

1490

帖子

4290

积分

4K家园VIP

Rank: 9Rank: 9Rank: 9

积分
4290
发表于 2021-12-29 14:17:43 | 显示全部楼层
是爷们的娘们的都帮顶!大力支持
回复 支持 反对

使用道具 举报

0

主题

1332

帖子

4008

积分

4K家园VIP

Rank: 9Rank: 9Rank: 9

积分
4008
发表于 2021-12-29 18:57:39 | 显示全部楼层
回复 支持 反对

使用道具 举报

您需要登录后才可以回帖 登录 | 立即注册

本版积分规则

精彩图文
Archiver|手机版|TAG|Sitemap|新帖|专题|联系我们:邮箱: 4kjia.com@gmail.com   

4k家园   ©2019