[4K电影] 赛车总动员 / Cars (2006) 4K高清版本下载

[复制链接]

1339

主题

1444

帖子

1万

积分

超级版主

Rank: 8Rank: 8

积分
11232
 楼主| 发表于 2021-12-29 10:17:31 | 显示全部楼层 |阅读模式
赛车总动员_副本.jpg

◎译  名 赛车总动员/反斗车王(港)/小汽车的故事/汽车总动员/飞车正传
◎片  名 Cars
◎年  代 2006
◎产  地 美国
◎类  别 喜剧 / 动画 / 冒险
◎语  言 英语,意大利语,日语,依地语
◎上映日期 2006-06-09(美国) / 2006-08-22(中国大陆)
◎豆瓣评分 8.0/10 from 164765 users
◎豆瓣链接 https://movie.douban.com/subject/1428878/
◎片  长 117分钟
◎导  演 约翰·拉塞特 John Lasseter / 乔·兰福特 Joe Ranft
◎编  剧 约翰·拉塞特 John Lasseter / 乔·兰福特 Joe Ranft / 乔根·克卢宾 Jorgen Klubien / 丹·福格尔曼 Dan Fogelman / 基尔·默里 Kiel Murray / 菲尔·洛林 Phil Lorin / 史蒂夫·波赛尔 Steve Purcell / 邦尼·亨特 Bonnie Hunt / 布兰达?查普曼 Brenda Chapman / 唐·雷克 Don Lake / 罗伯特·L·贝尔德 Robert L. Baird / 丹尼尔·吉尔森 Daniel Gerson
◎主  演 欧文·威尔逊 Owen Wilson
      保罗·纽曼 Paul Newman
      邦尼·亨特 Bonnie Hunt
      王牌接线员拉里 Larry The Cable Guy
      切奇·马林 Cheech Marin
      托尼·夏尔赫布 Tony Shalhoub
      盖多·克隆尼 Guido Quaroni
      詹妮弗·路易斯 Jenifer Lewis
      保罗·杜利 Paul Dooley
      迈克尔·沃利斯 Michael Wallis
      乔治·卡林 George Carlin
      凯瑟琳·海蒙德 Katherine Helmond
      约翰·拉岑贝格 John Ratzenberger
      乔·兰福特 Joe Ranft
      迈克尔·基顿 Michael Keaton
      伊迪·麦克勒格 Edie McClurg
      安德鲁·斯坦顿 Andrew Stanton
      小戴尔·恩哈特 Dale Earnhardt Jr.
      迈克尔·舒马赫 Michael Schumacher
      杰·雷诺 Jay Leno
      乔纳斯·里维拉 Jonas Rivera
      卢·罗曼诺 Lou Romano
      艾丽莎·奈特 Elissa Knight
      林赛·柯林斯 Lindsey Collins
      泰迪·牛顿 Teddy Newton
      户田惠子 Keiko Toda
      雪莉·琳恩 Sherry Lynn
      杰克·安杰尔 Jack Angel
      马里奥·安德烈蒂 Mario Andretti
      鲍勃·彼德森 Bob Peterson
      Konishi Sonoko Konishi Sonoko
      斯蒂芬·沙弗 Stephen Schaffer
      比尔·法玛尔 Bill Farmer
      黄磊 Lei Huang
      达雷尔·沃尔特里普 Darrell Waltrip
      蒂姆·艾伦 Tim Allen
      杰里米·皮文 Jeremy Piven
      比利·克里斯托 Billy Crystal
      托宾·赞·布洛克 Torbin Xan Bullock
      约翰·古德曼 John Goodman
      杰斯·哈梅尔 Jess Harnell
      雪儿·克劳 Sheryl Crow
      吉姆·瓦德 Jim Ward
      理查德·佩蒂 Richard Petty
      Craig Good Craig Good
      理查德·坎德 Richard Kind
      鲍勃·科斯塔斯 Bob Costas
      杰里米·克拉克森 Jeremy Clarkson
      詹妮弗·达林 Jennifer Darling
      保罗·伊丁 Paul Eiding
      特蕾莎·甘泽尔 Teresa Ganzel
      科琳·欧肖内希 Colleen O'Shaughnessey
      罗德格尔·邦帕斯 Rodger Bumpass
      鲍伯·伯根 Bob Bergen
      苏珊·布卢 Susan Blu
      汤姆·汉克斯 Tom Hanks
      大卫·弗利 Dave Foley
      迈克尔·贝尔 Michael Bell
      拉瑞恩·纽曼 Laraine Newman

◎标  签 动画 | 美国 | Pixar | 迪斯尼 | 喜剧 | 动画片 | 2006 | 美国电影

◎简  介

  汽车世界中,一年一度的活塞杯再次拉开序幕。红色跑车“闪电”麦坤和“冠军”、“路霸”是冠军最有力的竞争者。作为新人,麦坤具有极高的天赋,同时也是一个目空一切的家伙。经过紧张激烈的对抗,这三辆车同时冲过终点线。由于无法判定最终优胜者,组委会决定一个月后在加州洛杉矶召开一次只有这三辆车参加的殊死战,只有最后的胜者才能捧得活塞杯。

  信心满满麦坤和搭档拖车麦大叔早早启程。但是长时间的疲劳驾驶,令麦大叔不慎将麦坤丢在半路。麦坤东闯西撞,无意间来到了被众车遗忘的油车水镇。因躲避警长的追捕,麦坤毁坏了小镇的马路。在法官哈迪逊韩大夫和律师保时捷莎莉的裁决下,他被迫留在这里修路。短短几天相处,麦坤和小镇的居民渐渐融洽起来,同时他也爱上了美丽的莎莉。只不过,路终有修完的时候,未完的比赛仍在等待着他……

◎获奖情况

  第79届奥斯卡金像奖 ?(2007)
  最佳动画长片(提名) 约翰·拉塞特
  最佳原创歌曲(提名) 兰迪·纽曼

  第64届金球奖 ?(2007)
  电影类最佳动画长片

  第34届动画安妮奖 ?(2007)
  最佳动画长片
  最佳导演(提名) 约翰·拉塞特
  最佳编剧(提名) 丹·福格尔曼
  最佳配乐 兰迪·纽曼
  最佳艺术指导(提名) 威廉·科恩
  最佳动画角色(提名) 卡洛斯·巴埃纳?/?BobbyPodesta
  最佳动画效果(提名) 基斯·丹尼尔·克隆?/?ErdemTaylan

General
Complete name                  : E:\4K@电影\Cars.2006.2160p.WEB-DL.DDP5.1.Atmos.DV.MP4.x265-DVSUX.mp4
Format                         : MPEG-4
Format profile                 : Base Media
Codec ID                       : isom (isom)
File size                      : 19.1 GiB
Duration                       : 1 h 56 min
Overall bit rate mode          : Variable
Overall bit rate               : 23.5 Mb/s
IsTruncated                    : Yes

Video
ID                             : 1
Format                         : HEVC
Format/Info                    : High Efficiency Video Coding
Format profile                 : Main 10@L5@High
HDR format                     : Dolby Vision, Version 1.0, dvhe.05.06, BL+RPU
Codec ID                       : dvhe
Codec ID/Info                  : High Efficiency Video Coding with Dolby Vision
Duration                       : 1 h 56 min
Bit rate                       : 23.1 Mb/s
Width                          : 3 840 pixels
Height                         : 1 608 pixels
Original height                : 1 606 pixels
Display aspect ratio           : 2.40:1
Original display aspect ratio  : 2.40:1
Frame rate mode                : Constant
Frame rate                     : 23.976 (24000/1001) FPS
Color space                    : YUV
Chroma subsampling             : 4:2:0
Bit depth                      : 10 bits
Bits/(Pixel*Frame)             : 0.156
Stream size                    : 18.8 GiB (98%)
Default                        : Yes
Alternate group                : 1
Codec configuration box        : hvcC+dvcC

Audio
ID                             : 2
Format                         : E-AC-3 JOC
Format/Info                    : Enhanced AC-3 with Joint Object Coding
Commercial name                : Dolby Digital Plus with Dolby Atmos
Codec ID                       : ec-3
Duration                       : 1 h 56 min
Bit rate mode                  : Constant
Bit rate                       : 768 kb/s
Maximum bit rate               : 811 kb/s
Channel(s)                     : 6 channels
Channel layout                 : L R C LFE Ls Rs
Sampling rate                  : 48.0 kHz
Frame rate                     : 31.250 FPS (1536 SPF)
Compression mode               : Lossy
Stream size                    : 641 MiB (3%)
Title                          : English (US)
Language                       : English
Service kind                   : Complete Main
Complexity index               : Not present / 16
Number of dynamic objects      : 15
Bed channel count              : 1 channel
Bed channel configuration      : LFE

Text #1
ID                             : 3
Format                         : Timed Text
Codec ID                       : tx3g
Duration                       : 1 h 55 min
Bit rate mode                  : Variable
Bit rate                       : 77 b/s
Stream size                    : 65.8 KiB (0%)
Title                          : English
Language                       : English
Forced                         : No

Text #2
ID                             : 4
Format                         : Timed Text
Codec ID                       : tx3g
Duration                       : 1 h 55 min
Bit rate mode                  : Variable
Bit rate                       : 87 b/s
Stream size                    : 73.7 KiB (0%)
Title                          : SDH
Language                       : English
Forced                         : No

Text #3
ID                             : 5
Format                         : Timed Text
Codec ID                       : tx3g
Duration                       : 1 h 55 min
Bit rate mode                  : Variable
Bit rate                       : 62 b/s
Stream size                    : 53.1 KiB (0%)
Title                          : Spanish
Language                       : Spanish
Forced                         : No


迅雷下载资源速度为零或资源敏感被和谐时,推荐使用qBittorrent等下载软件,有条件的推荐115更好的下载软件!

下载地址


游客,如果您要查看本帖隐藏内容请回复








上一篇:美食总动员 / Ratatouille (2007) 4K高清版本下载
下一篇:赛车总动员2 / Cars2 (2011) 4K高清版本下载
回复

使用道具 举报

0

主题

1575

帖子

4305

积分

4K家园VIP

Rank: 9Rank: 9Rank: 9

积分
4305
发表于 2021-12-29 10:17:37 来自手机 | 显示全部楼层
看起来好像不错的样子
回复 支持 反对

使用道具 举报

0

主题

7280

帖子

1万

积分

4K家园VIP

Rank: 9Rank: 9Rank: 9

积分
16651
发表于 2021-12-29 12:42:31 | 显示全部楼层
太好啦&萬分感謝版主的無私發佈分享%
回复 支持 反对

使用道具 举报

2

主题

19

帖子

1637

积分

4K家园VIP

Rank: 9Rank: 9Rank: 9

积分
1637
发表于 2021-12-29 14:35:48 | 显示全部楼层
这是第二部呢,第一部没贴。
回复 支持 反对

使用道具 举报

1

主题

1390

帖子

4018

积分

4K家园VIP

Rank: 9Rank: 9Rank: 9

积分
4018
发表于 2022-1-2 14:15:50 | 显示全部楼层
呵呵。。。
回复 支持 反对

使用道具 举报

54

主题

1447

帖子

4185

积分

4K家园VIP

Rank: 9Rank: 9Rank: 9

积分
4185
发表于 2022-1-10 10:57:58 | 显示全部楼层
顶顶更健康
回复 支持 反对

使用道具 举报

1

主题

1475

帖子

4275

积分

4K家园VIP

Rank: 9Rank: 9Rank: 9

积分
4275
发表于 5 天前 | 显示全部楼层
支持一下楼主发表的内容
回复 支持 反对

使用道具 举报

1

主题

1600

帖子

4380

积分

4K家园VIP

Rank: 9Rank: 9Rank: 9

积分
4380
发表于 5 天前 | 显示全部楼层
支持下楼主,顶一个
回复 支持 反对

使用道具 举报

0

主题

12

帖子

306

积分

新手上路

Rank: 1

积分
306
发表于 前天 20:07 | 显示全部楼层
谢谢分享
回复

使用道具 举报

您需要登录后才可以回帖 登录 | 立即注册

本版积分规则

精彩图文
Archiver|手机版|TAG|Sitemap|新帖|专题|联系我们:邮箱: 4kjia.com@gmail.com   

4k家园   ©2019