[4K电影] 加勒比海盗2:聚魂棺(内封中字) (2006) 4K高清版本下载

[复制链接]

1323

主题

1428

帖子

1万

积分

超级版主

Rank: 8Rank: 8

积分
11131
 楼主| 发表于 2021-12-29 10:49:14 | 显示全部楼层 |阅读模式
QQ图片20211229103552_副本.png

◎译  名 加勒比海盗2:聚魂棺/Pirates 2/加勒比海盗:神鬼奇航2(台)/加勒比海盗2:亡灵宝藏/加勒比海盜:决战魔盜王(港)
◎片  名 Pirates of the Caribbean: Dead Man's Chest
◎年  代 2006
◎产  地 美国
◎类  别 动作 / 奇幻 / 冒险
◎语  言 英语,土耳其语,希腊语
◎上映日期 2006-07-07(美国)
◎豆瓣评分 8.4/10 from 368977 users
◎豆瓣链接 https://movie.douban.com/subject/1315574/
◎片  长 151分钟
◎导  演 戈尔·维宾斯基 Gore Verbinski
◎编  剧 泰德·艾略特 Ted Elliott / 特里·鲁西奥 Terry Rossio / 斯图尔特·贝亚蒂耶 Stuart Beattie / 杰·沃尔伯特 Jay Wolpert
◎主  演 约翰尼·德普 Johnny Depp
      奥兰多·布鲁姆 Orlando Bloom
      凯拉·奈特莉 Keira Knightley
      杰克·达文波特 Jack Davenport
      比尔·奈伊 Bill Nighy
      乔纳森·普雷斯 Jonathan Pryce
      李·阿伦伯格 Lee Arenberg
      麦肯锡·克鲁克 Mackenzie Crook
      凯文·麦克纳利 Kevin McNally
      大卫·拜利 David Bailie
      斯特兰·斯卡斯加德 Stellan Skarsg?rd
      汤姆·霍兰德 Tom Hollander
      娜奥米·哈里斯 Naomie Harris
      马丁·科勒巴 Martin Klebba
      大卫·斯科菲尔德 David Schofield
      亚力克斯·诺顿 Alex Norton
      劳伦·马赫 Lauren Maher
      内杰·亚当森 Nej Adamson
      卢克·德·沃夫松 Luke de Woolfson
      德里克·奥康纳 Derrick O'Connor
      德莫特·基尼 Dermot Keaney
      克里夫·阿什伯恩 Clive Ashborn
      罗比·基 Robbie Gee
      麦克斯·贝克 Max Baker
      史蒂夫·斯皮尔斯 Steve Speirs
      约翰·博斯沃尔 John Boswall
      克里斯托弗·亚当森 Christopher Adamson
      安迪·比克维奇 Andy Beckwith
      乔纳森·林斯利 Jonathan Linsley
      西蒙·米考克 Simon Meacock
      瓦妮莎·布兰奇 Vanessa Branch
      大卫·斯特恩 David Sterne
      安东尼·帕特里西奥 Anthony Patricio
      迈克尔·恩莱特 Michael Enright
      马克·可汗 Marco Khan
      大卫·扎赫迪安 David Zahedian
      法乌齐·卜拉希米 Faouzi Brahimi
      雷吉·李 Reggie Lee
      杰拉德·J·雷耶斯 Gerard J. Reyes
      哈亚提·阿克巴斯 Hayati Akbas
      斯蒂芬·阿纳尼茨 Stephen Ananicz
      拉斯蒂·格瑞斯登·博林 Rusty 'Gravestone' Bolin
      罗恩·博蒂塔 Ron Bottitta
      盖伊·查普曼 Guy Chapman
      尼尔·德蒙特 Neil D'Monte
      杰拉德·加纳 Jerald Garner
      赛米·汉拉缇 Sammi Hanratty
      达隆·亨廷顿 Dalon Huntington
      保罗·雅各布森 Paul Jacobson
      马克·约瑟夫 Marc Joseph
      乔纳森·克特 Jonathan Kite
      杰弗里·拉什 Geoffrey Rush
      金永钢 Yonggang Jin
      陆建艺 Jianyi Lu
      谢鹤群 Ho-Kwan Tse
      亚历山大苏恩佐夫 Aleksandr Sountsov
      约瑟夫·史蒂文 Joseph Steven
      尼基·泰勒·梅尔顿 Nikki Taylor Melton
      卡莉·罗森博格 Karly Rothenberg
      玛姬·蒙罗 Maggie Munro
      安·马修斯 Ann Matthews
      艾琳·沙基 Erin Sharkey
      迈克尔·博诺莫 Michael Buonomo
      马克·约瑟夫 Marc Joseph
      迈克尔·A·莱文 Michael A. Levine
      尼古拉斯·里德 Nicolas Read
      詹姆斯·S·莱文 James S. Levine

◎标  签 JohnnyDepp | 美国 | 魔幻 | 海盗 | 奇幻 | 加勒比海盗2 | 约翰尼·德普 | 动作

◎简  介

  迷人的杰克(约翰尼?戴普 饰)船长又回来了,这次,他遇到了更为强大的敌人——传说中的不死人大卫?琼斯(比尔?奈伊 饰),他驾驶着让人恐惧的“飞行荷兰人”号快船,在速度与装备上,没有任何船能够超越它。杰克船长欠下琼斯一个血债,他必须赶在最后时限到来之前,找到破解的方法,否则他会永远背负血债,并且在余生永远成为琼斯的奴隶。

  当然,杰克船长的好朋友威尔?特纳(奥兰多?布鲁姆 饰)也被卷入了他的坏运气当中。因为杰克,威尔和伊丽莎白(凯拉?奈特莉 饰)的婚礼被迫取消,伊丽莎白还被关进了监狱,威尔为了救她,只能去寻找杰克。

  这次两个好朋友遇到了巨大神秘的海洋怪物、不友善的小岛土著、打扮华丽的占卜者戴尔玛,威尔失散多年的父亲--“拉靴带”比尔?特纳(斯特兰?斯卡斯加德)在关键时刻离奇现身,成为全局的转折点……

◎获奖情况

  第79届奥斯卡金像奖 ?(2007)
  最佳视觉效果 约翰·诺尔?/?哈尔·T·希克尔?/?查尔斯·吉布森?/?艾伦·霍尔
  最佳混音(提名) 保罗·马瑟?/?克里斯托弗·博伊斯?/?李·奥尔洛夫
  最佳音效剪辑(提名) 乔治·沃特斯二世?/?克里斯托弗·博伊斯
  最佳艺术指导(提名) 谢丽尔·卡拉西克?/?瑞克·海因里希斯

  第64届金球奖 ?(2007)
  电影类音乐/喜剧片最佳男主角(提名) 约翰尼·德普

  第30届日本电影学院奖 ?(2007)
  最佳外语片(提名)

  第16届MTV电影奖 ?(2007)
  MTV电影奖年度电影
  MTV电影奖最佳表演 约翰尼·德普
  MTV电影奖最佳表演(提名) 凯拉·奈特莉
  MTV电影奖最佳反派(提名) 比尔·奈伊

General
Complete name                  : H:\4K@电影\Pirates.of.the.Caribbean.Dead.Mans.Chest.2006.2160p.WEB-DL.DD5.1.DV.MP4.x265-DVSUX.mp4
Format                         : MPEG-4
Format profile                 : Base Media
Codec ID                       : isom (isom)
File size                      : 25.5 GiB
Duration                       : 2 h 30 min
Overall bit rate mode          : Variable
Overall bit rate               : 24.2 Mb/s
IsTruncated                    : Yes

Video
ID                             : 1
Format                         : HEVC
Format/Info                    : High Efficiency Video Coding
Format profile                 : Main 10@L5@High
HDR format                     : Dolby Vision, Version 1.0, dvhe.05.06, BL+RPU
Codec ID                       : dvhe
Codec ID/Info                  : High Efficiency Video Coding with Dolby Vision
Duration                       : 2 h 30 min
Bit rate                       : 24.2 Mb/s
Width                          : 3 840 pixels
Height                         : 1 600 pixels
Original height                : 1 596 pixels
Display aspect ratio           : 2.40:1
Original display aspect ratio  : 2.40:1
Frame rate mode                : Constant
Frame rate                     : 23.976 (23976/1000) FPS
Color space                    : YUV
Chroma subsampling             : 4:2:0
Bit depth                      : 10 bits
Bits/(Pixel*Frame)             : 0.164
Stream size                    : 25.5 GiB (100%)
Default                        : Yes
Alternate group                : 1
Codec configuration box        : hvcC+dvcC

Audio
ID                             : 2
Format                         : AC-3
Format/Info                    : Audio Coding 3
Commercial name                : Dolby Digital
Codec ID                       : ac-3
Duration                       : 2 h 30 min
Bit rate mode                  : Constant
Bit rate                       : 384 kb/s
Maximum bit rate               : 406 kb/s
Channel(s)                     : 6 channels
Channel layout                 : L R C LFE Ls Rs
Sampling rate                  : 48.0 kHz
Frame rate                     : 31.250 FPS (1536 SPF)
Compression mode               : Lossy
Stream size                    : 414 MiB (2%)
Title                          : English (US)
Language                       : English
Service kind                   : Complete Main

Text #1
ID                             : 3
Format                         : Timed Text
Codec ID                       : tx3g
Duration                       : 2 h 20 min
Bit rate mode                  : Variable
Bit rate                       : 44 b/s
Stream size                    : 45.6 KiB (0%)
Title                          : English
Language                       : English
Forced                         : No

Text #2
ID                             : 4
Format                         : Timed Text
Codec ID                       : tx3g
Duration                       : 2 h 30 min
Bit rate mode                  : Variable
Bit rate                       : 46 b/s
Stream size                    : 50.5 KiB (0%)
Title                          : SDH
Language                       : English
Forced                         : No

Text #3
ID                             : 5
Format                         : Timed Text
Codec ID                       : tx3g
Duration                       : 2 h 30 min
Bit rate mode                  : Variable
Bit rate                       : 31 b/s
Stream size                    : 34.6 KiB (0%)
Title                          : 中文
Language                       : 中文
Forced                         : No

Text #4
ID                             : 6
Format                         : Timed Text
Codec ID                       : tx3g
Duration                       : 2 h 30 min
Bit rate mode                  : Variable
Bit rate                       : 32 b/s
Stream size                    : 35.8 KiB (0%)
Title                          : 中文
Language                       : 中文
Forced                         : No


Text #5
ID                             : 7
Format                         : Timed Text
Codec ID                       : tx3g
Duration                       : 2 h 20 min
Bit rate mode                  : Variable
Bit rate                       : 41 b/s
Stream size                    : 42.0 KiB (0%)
Title                          : Danish
Language                       : Danish
Forced                         : No

Text #6
ID                             : 8
Format                         : Timed Text
Codec ID                       : tx3g
Duration                       : 2 h 20 min
Bit rate mode                  : Variable
Bit rate                       : 42 b/s
Stream size                    : 43.8 KiB (0%)
Title                          : Spanish
Language                       : Spanish
Forced                         : No

Text #7
ID                             : 9
Format                         : Timed Text
Codec ID                       : tx3g
Duration                       : 2 h 20 min
Bit rate mode                  : Variable
Bit rate                       : 42 b/s
Stream size                    : 43.2 KiB (0%)
Title                          : Finnish
Language                       : Finnish
Forced                         : No

Text #8
ID                             : 10
Format                         : Timed Text
Codec ID                       : tx3g
Duration                       : 2 h 20 min
Bit rate mode                  : Variable
Bit rate                       : 38 b/s
Stream size                    : 38.9 KiB (0%)
Title                          : French
Language                       : French
Forced                         : No

Text #9
ID                             : 11
Format                         : Timed Text
Codec ID                       : tx3g
Duration                       : 2 h 22 min
Bit rate mode                  : Variable
Bit rate                       : 85 b/s
Stream size                    : 88.6 KiB (0%)
Title                          : Hebrew
Language                       : Hebrew
Forced                         : No

Text #10
ID                             : 12
Format                         : Timed Text
Codec ID                       : tx3g
Duration                       : 2 h 20 min
Bit rate mode                  : Variable
Bit rate                       : 43 b/s
Stream size                    : 44.8 KiB (0%)
Title                          : Indonesian
Language                       : Indonesian
Forced                         : No

Text #11
ID                             : 13
Format                         : Timed Text
Codec ID                       : tx3g
Duration                       : 2 h 20 min
Bit rate mode                  : Variable
Bit rate                       : 39 b/s
Stream size                    : 40.2 KiB (0%)
Title                          : Korean
Language                       : Korean
Forced                         : No

Text #12
ID                             : 14
Format                         : Timed Text
Codec ID                       : tx3g
Duration                       : 2 h 20 min
Bit rate mode                  : Variable
Bit rate                       : 37 b/s
Stream size                    : 37.8 KiB (0%)
Title                          : Norwegian
Language                       : Norwegian
Forced                         : No

Text #13
ID                             : 15
Format                         : Timed Text
Codec ID                       : tx3g
Duration                       : 2 h 20 min
Bit rate mode                  : Variable
Bit rate                       : 60 b/s
Stream size                    : 62.2 KiB (0%)
Title                          : Russian
Language                       : Russian
Forced                         : No

Text #14
ID                             : 16
Format                         : Timed Text
Codec ID                       : tx3g
Duration                       : 2 h 30 min
Bit rate mode                  : Variable
Bit rate                       : 36 b/s
Stream size                    : 39.5 KiB (0%)
Title                          : Swedish
Language                       : Swedish
Forced                         : No

Text #15
ID                             : 17
Format                         : Timed Text
Codec ID                       : tx3g
Duration                       : 2 h 22 min
Bit rate mode                  : Variable
Bit rate                       : 88 b/s
Stream size                    : 91.7 KiB (0%)
Title                          : Thai
Language                       : Thai
Forced                         : No

Text #16
ID                             : 18
Format                         : Timed Text
Codec ID                       : tx3g
Duration                       : 2 h 20 min
Bit rate mode                  : Variable
Bit rate                       : 46 b/s
Stream size                    : 47.8 KiB (0%)
Title                          : Turkish
Language                       : Turkish
Forced                         : No

Text #17
ID                             : 19
Format                         : Timed Text
Codec ID                       : tx3g
Duration                       : 2 h 20 min
Bit rate mode                  : Variable
Bit rate                       : 59 b/s
Stream size                    : 61.1 KiB (0%)
Title                          : Ukrainian
Language                       : Ukrainian
Forced                         : No

迅雷下载资源速度为零或资源敏感被和谐时,推荐使用qBittorrent等下载软件,有条件的推荐115更好的下载软件!

下载地址


游客,如果您要查看本帖隐藏内容请回复





.

上一篇:加勒比海盗(内封中字) (2003) 4K高清版本下载
下一篇:加勒比海盗3:世界的尽头(内封中字)(2007) 4K高清版本下载
回复

使用道具 举报

1

主题

1385

帖子

4009

积分

4K家园VIP

Rank: 9Rank: 9Rank: 9

积分
4009
发表于 2021-12-29 10:49:19 | 显示全部楼层
路过
回复 支持 反对

使用道具 举报

0

主题

7237

帖子

1万

积分

4K家园VIP

Rank: 9Rank: 9Rank: 9

积分
16569
发表于 2021-12-29 12:49:52 | 显示全部楼层
太好啦&萬分感謝版主的無私發佈分享%
回复 支持 反对

使用道具 举报

0

主题

1

帖子

6

积分

新手上路

Rank: 1

积分
6
发表于 2021-12-29 22:05:00 | 显示全部楼层
感谢楼主
回复

使用道具 举报

0

主题

15

帖子

105

积分

新手上路

Rank: 1

积分
105
发表于 2021-12-29 22:16:44 | 显示全部楼层
加勒比海盗2:聚魂棺
回复 支持 反对

使用道具 举报

2

主题

1534

帖子

4174

积分

4K家园VIP

Rank: 9Rank: 9Rank: 9

积分
4174
发表于 2021-12-30 05:34:42 | 显示全部楼层
高手啊
回复 支持 反对

使用道具 举报

2

主题

1319

帖子

3964

积分

4K家园VIP

Rank: 9Rank: 9Rank: 9

积分
3964
发表于 2021-12-30 11:34:50 | 显示全部楼层
高手啊
回复 支持 反对

使用道具 举报

1

主题

1475

帖子

4275

积分

4K家园VIP

Rank: 9Rank: 9Rank: 9

积分
4275
发表于 2021-12-30 12:41:34 来自手机 | 显示全部楼层
边撸边过
回复 支持 反对

使用道具 举报

5

主题

1460

帖子

4224

积分

4K家园VIP

Rank: 9Rank: 9Rank: 9

积分
4224
发表于 2021-12-30 20:14:23 | 显示全部楼层
差评
回复 支持 反对

使用道具 举报

0

主题

1

帖子

6

积分

新手上路

Rank: 1

积分
6
发表于 2021-12-30 21:51:07 来自手机 | 显示全部楼层
感谢
回复

使用道具 举报

您需要登录后才可以回帖 登录 | 立即注册

本版积分规则

精彩图文
Archiver|手机版|TAG|Sitemap|新帖|专题|联系我们:邮箱: 4kjia.com@gmail.com   

4k家园   ©2019