[4K电影] 加勒比海盗3:世界的尽头(内封中字)(2007) 4K高清版本下载

[复制链接]

1323

主题

1428

帖子

1万

积分

超级版主

Rank: 8Rank: 8

积分
11131
 楼主| 发表于 2021-12-29 10:54:56 | 显示全部楼层 |阅读模式
QQ图片20211229103658_副本.png

◎译  名 加勒比海盗3:世界的尽头/Pirates 3/加勒比海盗3:死亡荣誉/加勒比海盜:魔盜王终极之战(港)/神鬼奇航:世界的尽头(台)
◎片  名 Pirates of the Caribbean: At World's End
◎年  代 2007
◎产  地 美国
◎类  别 动作 / 奇幻 / 冒险
◎语  言 英语,荷兰语
◎上映日期 2007-05-25(美国) / 2007-06-12(中国大陆)
◎豆瓣评分 8.3/10 from 344597 users
◎豆瓣链接 https://movie.douban.com/subject/1418192/
◎片  长 169分钟
◎导  演 戈尔·维宾斯基 Gore Verbinski
◎编  剧 特里·鲁西奥 Terry Rossio / 泰德·艾略特 Ted Elliott / 杰·沃尔伯特 Jay Wolpert / 斯图尔特·贝亚蒂耶 Stuart Beattie
◎主  演 约翰尼·德普 Johnny Depp
      杰弗里·拉什 Geoffrey Rush
      奥兰多·布鲁姆 Orlando Bloom
      凯拉·奈特莉 Keira Knightley
      周润发 Yun-Fat Chow
      比尔·奈伊 Bill Nighy
      斯塔尼·科佩 Stany Coppet
      谢鹤群 Ho-Kwan Tse
      劳伦·马赫 Lauren Maher
      德莫特·基尼 Dermot Keaney
      克里夫·阿什伯恩 Clive Ashborn
      安迪·比克维奇 Andy Beckwith
      塔卡尤·费舍尔 Takayo Fischer
      马塞尔·尤勒斯 Marcel Iures
      塞尔希奥·卡尔德龙 Sergio Calderón
      金永钢 Yonggang Jin
      陆建艺 Jianyi Lu
      大卫·拜利 David Bailie
      JB·布兰科 JB Blanc
      杰克·达文波特 Jack Davenport
      娜奥米·哈里斯 Naomie Harris
      斯特兰·斯卡斯加德 Stellan Skarsg?rd
      雷吉·李 Reggie Lee
      布伦登·贝尔 Brendyn Bell
      加桑·马苏德 Ghassan Massoud
      汤姆·霍兰德 Tom Hollander
      乔纳森·普雷斯 Jonathan Pryce
      李·阿伦伯格 Lee Arenberg
      格雷格·埃利斯 Greg Ellis
      马绍尔·曼尼什 Marshall Manesh
      瓦妮莎·布兰奇 Vanessa Branch
      多米尼克·斯科特·凯伊 Dominic Scott Kay
      哈基姆·凯-卡西姆 Hakeem Kae-Kazim
      凯斯·理查德兹 Keith Richards
      乔纳森·林斯利 Jonathan Linsley
      马丁·科勒巴 Martin Klebba
      凯文·麦克纳利 Kevin McNally
      麦肯锡·克鲁克 Mackenzie Crook


◎简  介

  被大章鱼吞下去的杰克船长(强尼·戴普)进入了戴维·琼斯控制的“死界”——世界的尽头。为了拯救杰克,威尔·特纳(奥兰多·布鲁姆)、伊丽莎白(凯拉·奈特莉)和女巫等一行人也来到了“死界”。

  找到杰克,他们一行人解开迷咒,逃出了世界尽头。而此时狡猾的卡特勒·贝凯特(汤姆·霍兰德)已经得到了戴维·琼斯(比尔·奈伊)的心脏,由此挟持戴维·琼斯,掌控所有的公海海盗,为东印度公司攫取利益。为了应对危难,各地海盗头目秘密集会,展开是否释放女海神,杀掉戴维·琼斯的争论。

  原来女海神正是戴维·琼斯的旧情人,两人之间的微妙关系,成了双方交锋的关键。在平静的海面上,风雨降将至,最终的对决即将展开。每个人面临着怎样的命运?当最后的审判结束,大海能否重归往日的宁静?

◎获奖情况

  第80届奥斯卡金像奖 ?(2008)
  最佳视觉效果(提名) 约翰·弗雷泽
  最佳化妆(提名) 马丁·萨缪尔?/?维·尼尔

  第61届英国电影学院奖 ?(2008)
  电影奖最佳特殊视觉效果(提名) 哈尔·T·希克尔?/?约翰·弗雷泽?/?查尔斯·吉布森?/?约翰·诺尔

  第17届MTV电影奖 ?(2008)
  MTV电影奖年度电影(提名)
  MTV电影奖最佳喜剧表演 约翰尼·德普
  MTV电影奖最佳女演员(提名) 凯拉·奈特莉

General
Complete name                  : H:\4K@电影\Pirates.of.the.Caribbean.At.Worlds.End.2007.2160p.WEB-DL.DD5.1.DV.MP4.x265-DVSUX.mp4
Format                         : MPEG-4
Format profile                 : Base Media
Codec ID                       : isom (isom)
File size                      : 29.3 GiB
Duration                       : 2 h 48 min
Overall bit rate mode          : Variable
Overall bit rate               : 24.9 Mb/s

Video
ID                             : 1
Format                         : HEVC
Format/Info                    : High Efficiency Video Coding
Format profile                 : Main 10@L5@High
HDR format                     : Dolby Vision, Version 1.0, dvhe.05.06, BL+RPU
Codec ID                       : dvhe
Codec ID/Info                  : High Efficiency Video Coding with Dolby Vision
Duration                       : 2 h 48 min
Bit rate                       : 24.5 Mb/s
Width                          : 3 840 pixels
Height                         : 1 592 pixels
Display aspect ratio           : 2.40:1
Frame rate mode                : Constant
Frame rate                     : 23.976 (23976/1000) FPS
Color space                    : YUV
Chroma subsampling             : 4:2:0
Bit depth                      : 10 bits
Bits/(Pixel*Frame)             : 0.167
Stream size                    : 28.8 GiB (98%)
Default                        : Yes
Alternate group                : 1
Codec configuration box        : hvcC+dvcC

Audio
ID                             : 2
Format                         : AC-3
Format/Info                    : Audio Coding 3
Commercial name                : Dolby Digital
Codec ID                       : ac-3
Duration                       : 2 h 48 min
Bit rate mode                  : Constant
Bit rate                       : 384 kb/s
Maximum bit rate               : 406 kb/s
Channel(s)                     : 6 channels
Channel layout                 : L R C LFE Ls Rs
Sampling rate                  : 48.0 kHz
Frame rate                     : 31.250 FPS (1536 SPF)
Compression mode               : Lossy
Stream size                    : 463 MiB (2%)
Title                          : English (US)
Language                       : English
Service kind                   : Complete Main

Text #1
ID                             : 3
Format                         : Timed Text
Codec ID                       : tx3g
Duration                       : 2 h 37 min
Bit rate mode                  : Variable
Bit rate                       : 47 b/s
Stream size                    : 53.7 KiB (0%)
Title                          : English
Language                       : English
Forced                         : No

Text #2
ID                             : 4
Format                         : Timed Text
Codec ID                       : tx3g
Duration                       : 2 h 47 min
Bit rate mode                  : Variable
Bit rate                       : 48 b/s
Stream size                    : 59.4 KiB (0%)
Title                          : SDH
Language                       : English
Forced                         : No

Text #3
ID                             : 5
Format                         : Timed Text
Codec ID                       : tx3g
Duration                       : 2 h 48 min
Bit rate mode                  : Variable
Bit rate                       : 40 b/s
Stream size                    : 48.7 KiB (0%)
Title                          : 中文
Language                       : 中文
Forced                         : No

Text #4
ID                             : 6
Format                         : Timed Text
Codec ID                       : tx3g
Duration                       : 2 h 47 min
Bit rate mode                  : Variable
Bit rate                       : 36 b/s
Stream size                    : 44.2 KiB (0%)
Title                          : 中文
Language                       : 中文
Forced                         : No


Text #5
ID                             : 7
Format                         : Timed Text
Codec ID                       : tx3g
Duration                       : 2 h 47 min
Bit rate mode                  : Variable
Bit rate                       : 41 b/s
Stream size                    : 49.9 KiB (0%)
Title                          : Danish
Language                       : Danish
Forced                         : No

Text #6
ID                             : 8
Format                         : Timed Text
Codec ID                       : tx3g
Duration                       : 2 h 47 min
Bit rate mode                  : Variable
Bit rate                       : 43 b/s
Stream size                    : 53.3 KiB (0%)
Title                          : Spanish
Language                       : Spanish
Forced                         : No

Text #7
ID                             : 9
Format                         : Timed Text
Codec ID                       : tx3g
Duration                       : 2 h 47 min
Bit rate mode                  : Variable
Bit rate                       : 38 b/s
Stream size                    : 47.1 KiB (0%)
Title                          : French
Language                       : French
Forced                         : No

Text #8
ID                             : 10
Format                         : Timed Text
Codec ID                       : tx3g
Duration                       : 2 h 47 min
Bit rate mode                  : Variable
Bit rate                       : 67 b/s
Stream size                    : 82.5 KiB (0%)
Title                          : Hebrew
Language                       : Hebrew
Forced                         : No

Text #9
ID                             : 11
Format                         : Timed Text
Codec ID                       : tx3g
Duration                       : 2 h 47 min
Bit rate mode                  : Variable
Bit rate                       : 43 b/s
Stream size                    : 52.7 KiB (0%)
Title                          : Indonesian
Language                       : Indonesian
Forced                         : No

Text #10
ID                             : 12
Format                         : Timed Text
Codec ID                       : tx3g
Duration                       : 2 h 47 min
Bit rate mode                  : Variable
Bit rate                       : 48 b/s
Stream size                    : 58.6 KiB (0%)
Title                          : Malay (macrolanguage)
Language                       : Malay
Forced                         : No

Text #11
ID                             : 13
Format                         : Timed Text
Codec ID                       : tx3g
Duration                       : 2 h 47 min
Bit rate mode                  : Variable
Bit rate                       : 33 b/s
Stream size                    : 40.5 KiB (0%)
Title                          : Norwegian
Language                       : Norwegian
Forced                         : No

Text #12
ID                             : 14
Format                         : Timed Text
Codec ID                       : tx3g
Duration                       : 2 h 47 min
Bit rate mode                  : Variable
Bit rate                       : 67 b/s
Stream size                    : 82.6 KiB (0%)
Title                          : Russian
Language                       : Russian
Forced                         : No

Text #13
ID                             : 15
Format                         : Timed Text
Codec ID                       : tx3g
Duration                       : 2 h 47 min
Bit rate mode                  : Variable
Bit rate                       : 39 b/s
Stream size                    : 47.6 KiB (0%)
Title                          : Swedish
Language                       : Swedish
Forced                         : No

Text #14
ID                             : 16
Format                         : Timed Text
Codec ID                       : tx3g
Duration                       : 2 h 47 min
Bit rate mode                  : Variable
Bit rate                       : 94 b/s
Stream size                    : 116 KiB (0%)
Title                          : Thai
Language                       : Thai
Forced                         : No

Text #15
ID                             : 17
Format                         : Timed Text
Codec ID                       : tx3g
Duration                       : 2 h 47 min
Bit rate mode                  : Variable
Bit rate                       : 44 b/s
Stream size                    : 53.4 KiB (0%)
Title                          : Turkish
Language                       : Turkish
Forced                         : No

Text #16
ID                             : 18
Format                         : Timed Text
Codec ID                       : tx3g
Duration                       : 2 h 47 min
Bit rate mode                  : Variable
Bit rate                       : 69 b/s
Stream size                    : 84.8 KiB (0%)
Title                          : Ukrainian
Language                       : Ukrainian
Forced                         : No

Text #17
ID                             : 19
Format                         : Timed Text
Codec ID                       : tx3g
Duration                       : 2 h 48 min
Bit rate mode                  : Variable
Bit rate                       : 34 b/s
Stream size                    : 41.9 KiB (0%)
Title                          : 中文
Language                       : 中文
Forced                         : No


迅雷下载资源速度为零或资源敏感被和谐时,推荐使用qBittorrent等下载软件,有条件的推荐115更好的下载软件!

下载地址


游客,如果您要查看本帖隐藏内容请回复





.

上一篇:加勒比海盗2:聚魂棺(内封中字) (2006) 4K高清版本下载
下一篇:加勒比海盗4:惊涛怪浪 (2011) 4K高清版本下载
回复

使用道具 举报

2

主题

1150

帖子

3470

积分

4K家园VIP

Rank: 9Rank: 9Rank: 9

积分
3470
发表于 2021-12-29 10:55:02 | 显示全部楼层
是爷们的娘们的都帮顶!大力支持
回复 支持 反对

使用道具 举报

0

主题

7236

帖子

1万

积分

4K家园VIP

Rank: 9Rank: 9Rank: 9

积分
16568
发表于 2021-12-29 12:50:06 | 显示全部楼层
太好啦&萬分感謝版主的無私發佈分享%
回复 支持 反对

使用道具 举报

0

主题

1

帖子

10

积分

新手上路

Rank: 1

积分
10
发表于 2021-12-29 16:30:22 | 显示全部楼层
顶顶顶顶顶顶顶顶顶顶顶
回复 支持 反对

使用道具 举报

3

主题

1343

帖子

4047

积分

4K家园VIP

Rank: 9Rank: 9Rank: 9

积分
4047
发表于 2022-1-1 10:24:24 来自手机 | 显示全部楼层
感谢推荐,确实不错
回复 支持 反对

使用道具 举报

0

主题

1

帖子

6

积分

新手上路

Rank: 1

积分
6
发表于 2022-1-1 22:34:48 | 显示全部楼层
感谢!
回复

使用道具 举报

0

主题

1277

帖子

3853

积分

4K家园VIP

Rank: 9Rank: 9Rank: 9

积分
3853
发表于 2022-1-1 22:47:45 | 显示全部楼层
为保住菊花,这个一定得回复!
回复 支持 反对

使用道具 举报

0

主题

65

帖子

480

积分

新手上路

Rank: 1

积分
480
发表于 2022-1-2 21:16:50 | 显示全部楼层
加勒比海盗3:世界
回复 支持 反对

使用道具 举报

0

主题

10

帖子

87

积分

新手上路

Rank: 1

积分
87
发表于 2022-1-8 18:25:12 | 显示全部楼层
我要下载看看
回复 支持 反对

使用道具 举报

0

主题

1

帖子

6

积分

新手上路

Rank: 1

积分
6
发表于 2022-1-8 19:23:43 来自手机 | 显示全部楼层
滴滴滴滴滴滴滴滴滴
回复 支持 反对

使用道具 举报

您需要登录后才可以回帖 登录 | 立即注册

本版积分规则

精彩图文
Archiver|手机版|TAG|Sitemap|新帖|专题|联系我们:邮箱: 4kjia.com@gmail.com   

4k家园   ©2019