[4K电影] 加勒比海盗4:惊涛怪浪 (2011) 4K高清版本下载

[复制链接]

1323

主题

1428

帖子

1万

积分

超级版主

Rank: 8Rank: 8

积分
11131
 楼主| 发表于 2021-12-29 10:58:31 | 显示全部楼层 |阅读模式
QQ图片20211229103747_副本.png

◎译  名 加勒比海盗4:惊涛怪浪/Pirates 4/加勒比海盗 神鬼奇航:幽灵海(台)/加勒比海盗:魔盗狂潮(港)/加勒比海盗4:陌生的潮汐
◎片  名 Pirates of the Caribbean: On Stranger Tides
◎年  代 2011
◎产  地 美国
◎类  别 动作 / 奇幻 / 冒险
◎语  言 英语
◎上映日期 2011-05-20(美国/中国大陆)
◎豆瓣评分 7.8/10 from 330201 users
◎豆瓣链接 https://movie.douban.com/subject/3227410/
◎片  长 136分钟
◎导  演 罗伯·马歇尔 Rob Marshall
◎编  剧 泰德·艾略特 Ted Elliott / 特里·鲁西奥 Terry Rossio / 斯图尔特·贝亚蒂耶 Stuart Beattie / 杰·沃尔伯特 Jay Wolpert
◎主  演 约翰尼·德普 Johnny Depp
      佩内洛普·克鲁兹 Penélope Cruz
      杰弗里·拉什 Geoffrey Rush
      伊恩·麦柯肖恩 Ian McShane
      凯文·麦克纳利 Kevin McNally
      山姆·克拉弗林 Sam Claflin
      阿斯特丽德·伯格斯-弗瑞斯贝 àstrid Bergès-Frisbey
      斯蒂芬·格拉汉姆 Stephen Graham
      凯斯·理查德兹 Keith Richards
      理查德·格雷弗斯 Richard Griffiths
      格雷格·埃利斯 Greg Ellis
      达米恩·奥哈尔 Damian O'Hare
      奥斯卡·贾恩那达 óscar Jaenada
      安东·莱瑟 Anton Lesser
      罗杰·阿拉姆 Roger Allam
      朱迪·丹奇 Judi Dench
      克里斯托弗·法里班克 Christopher Fairbank
      保罗·巴泽利 Paul Bazely
      布隆森·韦伯 Bronson Webb
      理查德·汤姆森 Richard Thomson
      松崎悠希 Yuki Matsuzaki
      罗比·凯 Robbie Kay
      斯蒂夫·艾弗茨 Steve Evets
      Ian Mercer Ian Mercer
      道比·欧帕瑞 Deobia Oparei
      嘉玛·沃德 Gemma Ward
      塞巴斯蒂安·阿梅斯托 Sebastian Armesto
      胡安·卡洛斯·凡希多 Juan Carlos Vellido
      杰拉德·摩纳科 Gerard Monaco
      卢克·罗伯茨 Luke Roberts
      丹尼尔·英格斯 Daniel Ings
      艾米莉亚·琼斯 Emilia Jones
      帕特里克·肯尼迪 Patrick Kennedy
      Jody Halse Jody Halse
      克利福德·罗斯 Clifford Rose
      Sanya Hughes Sanya Hughes
      达芙妮 Daphne Joy
      安托瓦内特·尼普莱拉 Antoinette Nikprelaj
      德里克·梅耶斯 Derek Mears
      金塔雷·贝尼奥拉维特 Gintare Beinoraviciute
      贝恩·科拉科 Bern Colla?o
      埃利奥特·克罗斯利 Elliott Crossley
       Kit Farrell
      尼可拉·芬恩 Nichola Fynn
      鲍比·霍兰德·汉顿 Bobby Holland Hanton
       Harley Jay
      杰瑞米·金 Jeremy King
      特蕾莎·马奥尼 Teresa Mahoney
      让·皮埃尔·普拉茨 Jean Pierre Prats
      克里斯滕·史蒂芬森皮诺 Kristen StephensonPino
      哈维·沃尔什 Harvey Walsh
      陆建艺 Jianyi Lu
      季冠霖 Guanlin Ji
      金永钢 Yonggang Jin


◎简  介


  因故在伦敦盘桓期间,杰克·斯派罗船长(约翰尼·德普 Johnny Depp 饰)被英国国王的士兵抓住。原来传说中的“不老泉”重现世间,为了赶在西班牙之前得手。英国国王乔治二世(Richard Griffiths 饰)希望杰克和巴波萨船长(杰弗里·拉什 Geoffrey Rush 饰)联手出海寻找。倔强傲慢的杰克断然拒绝,阴差阳错进入了假杰克船长的巢穴,更由此邂逅了旧老情人安吉莉卡(佩妮洛普·克鲁兹 Penélope Cruz 饰)。各种因素促使迫使他加入了安吉莉卡的船队,更和她的父亲——臭名昭著海盗“黑胡子”(伊恩·麦柯肖恩 Ian McShane 饰)搅在了一起。新的冒险就在这纷乱中展开,无数的危险和诱惑等在大海的另一边……

◎获奖情况

  第39届动画安妮奖 ?(2012)
  最佳真人电影动画效果(提名) 布兰科·格鲁契奇

  第13届美国青少年选择奖 ?(2011)
  最佳科幻/奇幻电影(提名)
  最佳科幻/奇幻电影男演员(提名) 约翰尼·德普
  最佳科幻/奇幻电影女演员(提名) 佩内洛普·克鲁兹
  最佳电影反派(提名) 伊恩·麦柯肖恩

General
Complete name                  : H:\4K@电影\Pirates.of.the.Caribbean.On.Stranger.Tides.2011.2160p.WEB-DL.DD5.1.DV.MP4.x265-DVSUX.mp4
Format                         : MPEG-4
Format profile                 : Base Media
Codec ID                       : isom (isom)
File size                      : 23.5 GiB
Duration                       : 2 h 16 min
Overall bit rate mode          : Variable
Overall bit rate               : 24.7 Mb/s

Video
ID                             : 1
Format                         : HEVC
Format/Info                    : High Efficiency Video Coding
Format profile                 : Main 10@L5@High
HDR format                     : Dolby Vision, Version 1.0, dvhe.05.06, BL+RPU
Codec ID                       : dvhe
Codec ID/Info                  : High Efficiency Video Coding with Dolby Vision
Duration                       : 2 h 16 min
Bit rate                       : 24.3 Mb/s
Width                          : 3 840 pixels
Height                         : 1 600 pixels
Original height                : 1 596 pixels
Display aspect ratio           : 2.40:1
Original display aspect ratio  : 2.40:1
Frame rate mode                : Constant
Frame rate                     : 23.976 (23976/1000) FPS
Color space                    : YUV
Chroma subsampling             : 4:2:0
Bit depth                      : 10 bits
Bits/(Pixel*Frame)             : 0.165
Stream size                    : 23.2 GiB (98%)
Default                        : Yes
Alternate group                : 1
Codec configuration box        : hvcC+dvcC

Audio
ID                             : 2
Format                         : AC-3
Format/Info                    : Audio Coding 3
Commercial name                : Dolby Digital
Codec ID                       : ac-3
Duration                       : 2 h 16 min
Bit rate mode                  : Constant
Bit rate                       : 384 kb/s
Maximum bit rate               : 406 kb/s
Channel(s)                     : 6 channels
Channel layout                 : L R C LFE Ls Rs
Sampling rate                  : 48.0 kHz
Frame rate                     : 31.250 FPS (1536 SPF)
Compression mode               : Lossy
Stream size                    : 375 MiB (2%)
Title                          : English (US)
Language                       : English
Service kind                   : Complete Main
Default                        : Yes
Alternate group                : 1

Text #1
ID                             : 4
Format                         : Timed Text
Codec ID                       : tx3g
Duration                       : 2 h 7 min
Bit rate mode                  : Variable
Bit rate                       : 51 b/s
Stream size                    : 47.7 KiB (0%)
Title                          : English
Language                       : English
Forced                         : No

Text #2
ID                             : 5
Format                         : Timed Text
Codec ID                       : tx3g
Duration                       : 2 h 15 min
Bit rate mode                  : Variable
Bit rate                       : 57 b/s
Stream size                    : 57.1 KiB (0%)
Title                          : SDH
Language                       : English
Forced                         : No

Text #3
ID                             : 6
Format                         : Timed Text
Codec ID                       : tx3g
Duration                       : 2 h 8 min
Bit rate mode                  : Variable
Bit rate                       : 48 b/s
Stream size                    : 45.3 KiB (0%)
Title                          : Danish
Language                       : Danish
Forced                         : No

Text #4
ID                             : 7
Format                         : Timed Text
Codec ID                       : tx3g
Duration                       : 2 h 8 min
Bit rate mode                  : Variable
Bit rate                       : 46 b/s
Stream size                    : 43.4 KiB (0%)
Title                          : German
Language                       : German
Forced                         : No

Text #5
ID                             : 8
Format                         : Timed Text
Codec ID                       : tx3g
Duration                       : 2 h 16 min
Bit rate mode                  : Variable
Bit rate                       : 79 b/s
Stream size                    : 78.7 KiB (0%)
Title                          : Modern Greek (1453-)
Language                       : Greek
Forced                         : No

Text #6
ID                             : 9
Format                         : Timed Text
Codec ID                       : tx3g
Duration                       : 2 h 8 min
Bit rate mode                  : Variable
Bit rate                       : 48 b/s
Stream size                    : 45.0 KiB (0%)
Title                          : Spanish
Language                       : Spanish
Forced                         : No

Text #7
ID                             : 10
Format                         : Timed Text
Codec ID                       : tx3g
Duration                       : 2 h 8 min
Bit rate mode                  : Variable
Bit rate                       : 46 b/s
Stream size                    : 43.8 KiB (0%)
Title                          : Finnish
Language                       : Finnish
Forced                         : No

Text #8
ID                             : 11
Format                         : Timed Text
Codec ID                       : tx3g
Duration                       : 2 h 8 min
Bit rate mode                  : Variable
Bit rate                       : 44 b/s
Stream size                    : 41.5 KiB (0%)
Title                          : French
Language                       : French
Forced                         : No

Text #9
ID                             : 12
Format                         : Timed Text
Codec ID                       : tx3g
Duration                       : 2 h 8 min
Bit rate mode                  : Variable
Bit rate                       : 64 b/s
Stream size                    : 60.0 KiB (0%)
Title                          : Hebrew
Language                       : Hebrew
Forced                         : No

Text #10
ID                             : 13
Format                         : Timed Text
Codec ID                       : tx3g
Duration                       : 2 h 8 min
Bit rate mode                  : Variable
Bit rate                       : 47 b/s
Stream size                    : 44.7 KiB (0%)
Title                          : Italian
Language                       : Italian
Forced                         : No

Text #11
ID                             : 14
Format                         : Timed Text
Codec ID                       : tx3g
Duration                       : 2 h 8 min
Bit rate mode                  : Variable
Bit rate                       : 49 b/s
Stream size                    : 45.7 KiB (0%)
Title                          : Korean
Language                       : Korean
Forced                         : No

Text #12
ID                             : 15
Format                         : Timed Text
Codec ID                       : tx3g
Duration                       : 2 h 7 min
Bit rate mode                  : Variable
Bit rate                       : 47 b/s
Stream size                    : 44.3 KiB (0%)
Title                          : Dutch
Language                       : Dutch
Forced                         : No

Text #13
ID                             : 16
Format                         : Timed Text
Codec ID                       : tx3g
Duration                       : 2 h 7 min
Bit rate mode                  : Variable
Bit rate                       : 46 b/s
Stream size                    : 43.2 KiB (0%)
Title                          : Norwegian
Language                       : Norwegian
Forced                         : No

Text #14
ID                             : 17
Format                         : Timed Text
Codec ID                       : tx3g
Duration                       : 2 h 16 min
Bit rate mode                  : Variable
Bit rate                       : 46 b/s
Stream size                    : 45.6 KiB (0%)
Title                          : Portuguese
Language                       : Portuguese
Forced                         : No

Text #15
ID                             : 18
Format                         : Timed Text
Codec ID                       : tx3g
Duration                       : 2 h 8 min
Bit rate mode                  : Variable
Bit rate                       : 83 b/s
Stream size                    : 78.0 KiB (0%)
Title                          : Russian
Language                       : Russian
Forced                         : No

Text #16
ID                             : 19
Format                         : Timed Text
Codec ID                       : tx3g
Duration                       : 2 h 8 min
Bit rate mode                  : Variable
Bit rate                       : 45 b/s
Stream size                    : 42.7 KiB (0%)
Title                          : Swedish
Language                       : Swedish
Forced                         : No

Text #17
ID                             : 20
Format                         : Timed Text
Codec ID                       : tx3g
Duration                       : 2 h 16 min
Bit rate mode                  : Variable
Bit rate                       : 94 b/s
Stream size                    : 93.4 KiB (0%)
Title                          : Thai
Language                       : Thai
Forced                         : No

Text #18
ID                             : 21
Format                         : Timed Text
Codec ID                       : tx3g
Duration                       : 2 h 8 min
Bit rate mode                  : Variable
Bit rate                       : 52 b/s
Stream size                    : 48.6 KiB (0%)
Title                          : Turkish
Language                       : Turkish
Forced                         : No

迅雷下载资源速度为零或资源敏感被和谐时,推荐使用qBittorrent等下载软件,有条件的推荐115更好的下载软件!

下载地址


游客,如果您要查看本帖隐藏内容请回复





.



上一篇:加勒比海盗3:世界的尽头(内封中字)(2007) 4K高清版本下载
下一篇:蝙蝠侠:侠影之谜 / Batman Begins (2005) 4K高清版本下载
回复

使用道具 举报

48

主题

1485

帖子

4325

积分

4K家园VIP

Rank: 9Rank: 9Rank: 9

积分
4325
发表于 2021-12-29 10:58:38 | 显示全部楼层
无论是不是沙发都得回复下
回复 支持 反对

使用道具 举报

0

主题

7237

帖子

1万

积分

4K家园VIP

Rank: 9Rank: 9Rank: 9

积分
16569
发表于 2021-12-29 12:50:21 | 显示全部楼层
太好啦&萬分感謝版主的無私發佈分享%
回复 支持 反对

使用道具 举报

0

主题

1

帖子

10

积分

新手上路

Rank: 1

积分
10
发表于 2021-12-29 17:18:00 | 显示全部楼层
x下载看看
回复

使用道具 举报

0

主题

2

帖子

9

积分

新手上路

Rank: 1

积分
9
发表于 2021-12-29 20:15:42 | 显示全部楼层
感受一下高清
回复 支持 反对

使用道具 举报

0

主题

16

帖子

121

积分

新手上路

Rank: 1

积分
121
发表于 2021-12-30 09:54:29 | 显示全部楼层
666666666666666
回复 支持 反对

使用道具 举报

0

主题

688

帖子

2402

积分

注册会员

Rank: 2

积分
2402
发表于 2021-12-30 22:25:39 | 显示全部楼层
感谢楼主分享
回复 支持 反对

使用道具 举报

0

主题

1

帖子

6

积分

新手上路

Rank: 1

积分
6
发表于 2021-12-31 13:43:47 | 显示全部楼层
kanyuixai
回复

使用道具 举报

0

主题

3

帖子

31

积分

新手上路

Rank: 1

积分
31
发表于 2021-12-31 14:33:20 | 显示全部楼层
感谢分享!
回复

使用道具 举报

0

主题

1

帖子

10

积分

新手上路

Rank: 1

积分
10
发表于 2022-1-3 00:55:43 | 显示全部楼层
感谢楼主
回复

使用道具 举报

您需要登录后才可以回帖 登录 | 立即注册

本版积分规则

精彩图文
Archiver|手机版|TAG|Sitemap|新帖|专题|联系我们:邮箱: 4kjia.com@gmail.com   

4k家园   ©2019