[4K电影] 蝙蝠侠:侠影之谜 / Batman Begins (2005) 4K高清版本下载

[复制链接]

1339

主题

1444

帖子

1万

积分

超级版主

Rank: 8Rank: 8

积分
11232
 楼主| 发表于 2021-12-29 11:49:18 | 显示全部楼层 |阅读模式
本帖最后由 最爱4K哟 于 2021-12-29 17:18 编辑

蝙蝠侠:侠影之谜_副本.jpg

◎译  名 蝙蝠侠:侠影之谜/蝙蝠侠-侠影之谜(港)/蝙蝠侠:开战时刻(台)/蝙蝠侠5/蝙蝠侠前传/蝙蝠侠前传1:侠影之谜/蝙蝠侠诞生
◎片  名 Batman Begins
◎年  代 2005
◎产  地 美国,英国
◎类  别 剧情 / 动作 / 科幻 / 惊悚 / 犯罪
◎语  言 英语,乌尔都语,汉语普通话
◎上映日期 2005-06-15(美国) / 2005-06-29(中国大陆)
◎IMDb评分  8.2/10 from 1287357 users
◎IMDb链接  https://www.imdb.com/title/tt0372784/
◎豆瓣评分 8.5/10 from 289723 users
◎豆瓣链接 https://movie.douban.com/subject/1309069/
◎片  长 140分钟
◎整理链接 https://www.uump4.me/
◎导  演 克里斯托弗·诺兰 Christopher Nolan
◎编  剧 大卫·S·高耶 David S. Goyer / 克里斯托弗·诺兰 Christopher Nolan / 鲍勃·凯恩 Bob Kane
◎主  演 克里斯蒂安·贝尔 Christian Bale
       迈克尔·凯恩 Michael Caine
       连姆·尼森 Liam Neeson
       凯蒂·霍尔姆斯 Katie Holmes
       加里·奥德曼 Gary Oldman
       基里安·墨菲 Cillian Murphy
       汤姆·威尔金森 Tom Wilkinson
       鲁特格尔·哈尔 Rutger Hauer
       渡边谦 Ken Watanabe
       小马克·布恩 Mark Boone Junior
       莱纳斯·罗彻 Linus Roache
       摩根·弗里曼 Morgan Freeman
       拉里·霍尔登 Larry Holden
       杰拉德·墨菲 Gerard Murphy
       柯林·麦克法兰 Colin McFarlane
       莎拉·斯图尔特 Sara Stewart
       加斯·刘易斯 Gus Lewis
       理查德·布雷克 Richard Brake
       拉德·舍博德兹加 Rade Serbedzija
       艾玛·洛克哈特 Emma Lockhart
       克里斯蒂尼·亚当斯 Christine Adams
       凯瑟琳·波特 Catherine Porter
       约翰·诺兰 John Nolan
       杰克·格里森 Jack Gleeson
       翁世杰 Sai-Kit Yung
       亚历山德拉·巴斯蒂杜 Alexandra Bastedo
       吉尔·科雷林 Gil Kolirin
       约翰·芬 Jon Foo
       塔梅尔·哈桑 Tamer Hassan
       迪·泰尔斯 Dee Tails
       杰里米·西奥伯德 Jeremy Theobald
       瑞斯特德·库珀 Risteard Cooper
       露西·钱伯斯 Lucy Chambers
       迪恩·亚历桑德罗 Dean Alexandrou
       丹·普尔 Dan Poole
       乔榛 Zhen Qiao
       安德鲁·普利文 Andrew Pleavin
       马克·史密斯 Mark Rhino Smith
       提姆·布斯 Tim Booth
       多米尼克·伯吉斯 Dominic Burgess
       纳迪亚·卡梅隆-布莱克利 Nadia Cameron-Blakey
       阿卜杜尔·波波拉 Abdul Popoola
       詹姆斯·恩布里 James Embree
       露西·拉塞尔 Lucy Russell
       马克·斯特雷克 Mark Straker
       斯宾塞·怀尔丁 Spencer Wilding
       莫恩博特斯 Morne Botes
       伊立沙·弗雷丁 Ilyssa Fradin
       埃米尔·马蒂罗西 Emil Martirossian
       大卫·拜德拉 David Bedella
       迈克尔·斯泰利 Michael Stailey
       蒂莫西·迪尼汉 Timothy Deenihan
       查尔斯·爱德华兹 Charles Edwards
       大卫·勒格诺 Dave Legeno
       诺亚里马吉茨 Noah Lee Margetts
       马特·米勒 Matt Miller
       大卫·莫瑞 David Murray
       江锦荣 Turbo Kong
       T·J·拉米尼 T.J. Ramini


◎简  介

  布鲁斯 韦恩(克里斯汀•贝尔 Christian Bale 饰)童年亲眼目睹了父母在高谭市街头被歹徒枪杀,韦恩充满怒火。在继承了父亲亿万家产后,韦恩开始环游世界,希望凭自己的力量复仇和打击犯罪!
  韦恩为了了解罪犯的心理,在亚洲他亲自体现了犯罪的感觉,最后被捕入狱。他在狱中遇到了武艺高强的杜卡,杜卡传授了韦恩高强的武艺和坚韧的意志力。韦恩很快被神秘的影忍者盟看上,忍者大师一直想邀他加入。
  韦恩不久发现影忍者盟对自己的家乡高谭市另有企图,他毅然回到了故乡。韦恩在自己的庄园发现了一个地下室,从此他多了一个身份—蝙蝠侠。蝙蝠侠开始了对抗笼罩在高谭市的黑暗。

◎获奖情况

  第78届奥斯卡金像奖  (2006)
  最佳摄影(提名) 沃利·菲斯特

  第59届英国电影学院奖  (2006)
  电影奖最佳艺术指导(提名) 内森·克劳利
  电影奖最佳特殊视觉效果(提名) 保罗·J·富兰克林 / 丹·格拉斯 / 克里斯·考博德 / 加内克·西尔斯
  电影奖最佳音效(提名) 斯蒂凡·亨里克斯 / 大卫·伊万斯 / 彼得·林赛

  第15届MTV电影奖  (2006)
  MTV电影奖年度电影(提名)
  MTV电影奖最佳反派(提名) 基里安·墨菲
  MTV电影奖最佳英雄形象 克里斯蒂安·贝尔
General
Complete name                  : H:\4K@电影\Batman.Begins.2005.2160p.WEB-DL.DD5.1.DV.MP4.x265-DVSUX.mp4
Format                         : MPEG-4
Format profile                 : Base Media
Codec ID                       : isom (isom)
File size                      : 24.2 GiB
Duration                       : 2 h 20 min
Overall bit rate mode          : Variable
Overall bit rate               : 24.8 Mb/s
IsTruncated                    : Yes

Video
ID                             : 1
Format                         : HEVC
Format/Info                    : High Efficiency Video Coding
Format profile                 : Main 10@L5@High
HDR format                     : Dolby Vision, Version 1.0, dvhe.05.06, BL+RPU
Codec ID                       : dvhe
Codec ID/Info                  : High Efficiency Video Coding with Dolby Vision
Duration                       : 2 h 20 min
Bit rate                       : 24.4 Mb/s
Width                          : 3 832 pixels
Height                         : 1 600 pixels
Original height                : 1 596 pixels
Display aspect ratio           : 2.40:1
Original display aspect ratio  : 2.40:1
Frame rate mode                : Constant
Frame rate                     : 23.976 (24000/1001) FPS
Color space                    : YUV
Chroma subsampling             : 4:2:0
Bit depth                      : 10 bits
Bits/(Pixel*Frame)             : 0.166
Stream size                    : 23.8 GiB (98%)
Default                        : Yes
Alternate group                : 1
Codec configuration box        : hvcC+dvcC

Audio
ID                             : 2
Format                         : AC-3
Format/Info                    : Audio Coding 3
Commercial name                : Dolby Digital
Codec ID                       : ac-3
Duration                       : 2 h 20 min
Bit rate mode                  : Constant
Bit rate                       : 384 kb/s
Maximum bit rate               : 406 kb/s
Channel(s)                     : 6 channels
Channel layout                 : L R C LFE Ls Rs
Sampling rate                  : 48.0 kHz
Frame rate                     : 31.250 FPS (1536 SPF)
Compression mode               : Lossy
Stream size                    : 385 MiB (2%)
Title                          : English
Language                       : English
Service kind                   : Complete Main

Text #1
ID                             : 3
Format                         : Timed Text
Codec ID                       : tx3g
Duration                       : 2 h 10 min
Bit rate mode                  : Variable
Bit rate                       : 59 b/s
Stream size                    : 56.8 KiB (0%)
Title                          : English
Language                       : English
Forced                         : No

Text #2
ID                             : 4
Format                         : Timed Text
Codec ID                       : tx3g
Duration                       : 2 h 20 min
Bit rate mode                  : Variable
Bit rate                       : 74 b/s
Stream size                    : 76.2 KiB (0%)
Title                          : SDH
Language                       : English
Forced                         : No

Text #3
ID                             : 5
Format                         : Timed Text
Codec ID                       : tx3g
Duration                       : 2 h 19 min
Bit rate mode                  : Variable
Bit rate                       : 45 b/s
Stream size                    : 46.5 KiB (0%)
Title                          : French
Language                       : French
Forced                         : No

Text #4
ID                             : 6
Format                         : Timed Text
Codec ID                       : tx3g
Duration                       : 2 h 10 min
Bit rate mode                  : Variable
Bit rate                       : 47 b/s
Stream size                    : 44.7 KiB (0%)
Title                          : Japanese
Language                       : Japanese
Forced                         : No


迅雷下载资源速度为零或资源敏感被和谐时,推荐使用qBittorrent等下载软件,有条件的推荐115更好的下载软件!

下载地址

游客,如果您要查看本帖隐藏内容请回复

游客,如果您要查看本帖隐藏内容请回复




.

上一篇:加勒比海盗4:惊涛怪浪 (2011) 4K高清版本下载
下一篇:怪兽电力公司 / Monsters, Inc.(2001) 4K高清版本下载
回复

使用道具 举报

50

主题

1486

帖子

4262

积分

4K家园VIP

Rank: 9Rank: 9Rank: 9

积分
4262
发表于 2021-12-29 11:49:25 | 显示全部楼层
4K版的应该更清晰吧
回复 支持 反对

使用道具 举报

0

主题

7280

帖子

1万

积分

4K家园VIP

Rank: 9Rank: 9Rank: 9

积分
16651
发表于 2021-12-29 12:50:40 | 显示全部楼层
太好啦&萬分感謝版主的無私發佈分享%
回复 支持 反对

使用道具 举报

0

主题

1

帖子

10

积分

新手上路

Rank: 1

积分
10
发表于 2021-12-29 15:32:35 | 显示全部楼层
感谢分享
回复

使用道具 举报

0

主题

240

帖子

1473

积分

注册会员

Rank: 2

积分
1473
发表于 2021-12-29 15:58:29 | 显示全部楼层
感謝版主的無私發佈分享
回复 支持 反对

使用道具 举报

0

主题

1

帖子

6

积分

新手上路

Rank: 1

积分
6
发表于 2021-12-29 16:00:29 | 显示全部楼层
感谢!感谢分享!
回复 支持 反对

使用道具 举报

0

主题

3

帖子

19

积分

新手上路

Rank: 1

积分
19
QQ
发表于 2021-12-29 16:20:04 | 显示全部楼层
66666666666666
回复 支持 反对

使用道具 举报

0

主题

1340

帖子

4034

积分

4K家园VIP

Rank: 9Rank: 9Rank: 9

积分
4034
发表于 2021-12-29 19:52:20 | 显示全部楼层
撸过
回复 支持 反对

使用道具 举报

0

主题

7280

帖子

1万

积分

4K家园VIP

Rank: 9Rank: 9Rank: 9

积分
16651
发表于 2021-12-30 01:29:34 | 显示全部楼层
蝙蝠俠☆俠影之謎4k
回复 支持 反对

使用道具 举报

2

主题

1599

帖子

4397

积分

4K家园VIP

Rank: 9Rank: 9Rank: 9

积分
4397
发表于 2021-12-30 02:14:57 | 显示全部楼层
鄙视楼下的顶帖没我快,哈哈
回复 支持 反对

使用道具 举报

您需要登录后才可以回帖 登录 | 立即注册

本版积分规则

精彩图文
Archiver|手机版|TAG|Sitemap|新帖|专题|联系我们:邮箱: 4kjia.com@gmail.com   

4k家园   ©2019