[4K电影] 怪兽电力公司 / Monsters, Inc.(2001) 4K高清版本下载

[复制链接]

1339

主题

1444

帖子

1万

积分

超级版主

Rank: 8Rank: 8

积分
11232
 楼主| 发表于 2021-12-29 17:24:41 | 显示全部楼层 |阅读模式
怪兽电力公司_副本.jpg

◎译  名 怪兽电力公司/怪兽公司(港)/怪物公司
◎片  名 Monsters, Inc.
◎年  代 2001
◎产  地 美国
◎类  别 喜剧 / 动画 / 儿童 / 奇幻 / 冒险
◎语  言 英语
◎上映日期 2001-11-02(美国) / 2012-12-19(美国)
◎豆瓣评分 8.7/10 from 573819 users
◎豆瓣链接 https://movie.douban.com/subject/1291579/
◎片  长 92分钟
◎导  演 彼特·道格特 Pete Docter / 大卫·西尔弗曼 David Silverman / 李·昂克里奇 Lee Unkrich
◎编  剧 安德鲁·斯坦顿 Andrew Stanton / 丹尼尔·吉尔森 Daniel Gerson / 罗伯特·L·贝尔德 Robert L. Baird / 瑞特·里斯 Rhett Reese / 乔纳森·罗伯特 Jonathan Roberts / 彼特·道格特 Pete Docter / 杰夫·皮金 Jeff Pidgeon / 吉尔·卡尔顿 Jill Culton / 拉夫·埃格尔斯顿 Ralph Eggleston
◎主  演 约翰·古德曼 John Goodman
      比利·克里斯托 Billy Crystal
      玛丽·吉布斯 Mary Gibbs
      史蒂夫·布西密 Steve Buscemi
      詹姆斯·柯本 James Coburn
      詹妮弗·提莉 Jennifer Tilly
      鲍勃·彼德森 Bob Peterson
      约翰·拉岑贝格 John Ratzenberger
      弗兰克·奥兹 Frank Oz
      丹尼尔·吉尔森 Daniel Gerson
      邦尼·亨特 Bonnie Hunt
      杰克·安杰尔 Jack Angel
      塞缪尔·洛德·布莱克 Samuel Lord Black
      史蒂夫·萨斯坎德 Steve Susskind
      李·昂克里奇 Lee Unkrich
      李立宏 Lihong Li
      王伟忠 Wei-zhong Wang
      华莱士·肖恩 Wallace Shawn
      黄子佼 Mickey Huang
      胡立成 Licheng Hu
      雪莉·琳恩 Sherry Lynn
      比尔·法玛尔 Bill Farmer

◎标  签 动画 | 迪斯尼 | 美国 | 喜剧 | 温情 | 动画片 | 卡通 | 皮克斯

◎简  介

  我们不知道,在那样的世界里住着那样一群怪物。他们长相滑稽,却必须装作狰狞。因为,在夜深的时候,他们要悄悄的出现在孩子的衣橱里,吓唬刚刚甜美睡去的宝宝。一切,只因为他们是怪物电力公司的员工,而孩子的尖叫,则是怪物王国发电的全部能量。怪物们害怕孩子,却又必须让孩子尖叫。在怪物的国度里,他们都是为全民造福的英雄。

  毛怪苏利文(约翰?古德曼)是怪物公司最出色的员工,业绩总是摇摇领先,他吓哭的小孩儿不计其数。他与搭档大眼怪麦克(比利?克里斯托)很受大家的爱戴。一次偶然,毛怪不小心把一个两岁的小女孩阿布(玛丽?吉布斯)带回了怪物世界,引起了极大的恐慌,调皮可爱的阿布把这些可怕的怪物吓的人仰马翻。警方在追捕阿布,而坏蛋亨利(詹姆斯?柯博)也计划利用阿布进行他改革工厂的邪恶计划。

  另一方面,在与阿布相处的过程中,毛怪渐渐对她产生莫名的情愫,甚至因此被放逐野外。可是一切都不能抵挡毛怪拯救女孩的信念,为了阿布,毛怪踏上了艰险的旅程……

◎获奖情况

  第74届奥斯卡金像奖 ?(2002)
  最佳动画长片(提名) 约翰·拉塞特?/?彼特·道格特
  最佳音效剪辑 嘉里·瑞德斯托姆?/?迈克尔·席维斯
  最佳原创配乐(提名) 兰迪·纽曼
  最佳原创歌曲 兰迪·纽曼

  第30届动画安妮奖 ?(2003)
  最佳动画长片(提名)
  最佳导演(提名) 彼特·道格特?/?大卫·西尔弗曼?/?李·昂克里奇
  最佳编剧(提名) 丹尼尔·吉尔森?/?安德鲁·斯坦顿
  最佳配乐(提名) 兰迪·纽曼
  最佳艺术指导(提名) 哈雷·杰斯普
  最佳动画角色(提名) 瑞奇·尼尔瓦
  最佳角色设计(提名) 瑞奇·尼尔瓦

  第27届报知映画赏 ?(2002)
  海外作品奖 彼特·道格特

General
Complete name                  : H:\4K@电影\Monsters.Inc.2001.2160p.WEB-DL.DD5.1.DV.MP4.x265-DVSUX.mp4
Format                         : MPEG-4
Format profile                 : Base Media
Codec ID                       : isom (isom)
File size                      : 14.9 GiB
Duration                       : 1 h 32 min
Overall bit rate mode          : Variable
Overall bit rate               : 23.1 Mb/s
IsTruncated                    : Yes

Video
ID                             : 1
Format                         : HEVC
Format/Info                    : High Efficiency Video Coding
Format profile                 : Main 10@L5@High
HDR format                     : Dolby Vision, Version 1.0, dvhe.05.06, BL+RPU
Codec ID                       : dvhe
Codec ID/Info                  : High Efficiency Video Coding with Dolby Vision
Duration                       : 1 h 32 min
Bit rate                       : 22.8 Mb/s
Width                          : 3 840 pixels
Original width                 : 3 838 pixels
Height                         : 2 080 pixels
Original height                : 2 074 pixels
Display aspect ratio           : 1.85:1
Original display aspect ratio  : 1.85:1
Frame rate mode                : Constant
Frame rate                     : 23.976 (24000/1001) FPS
Color space                    : YUV
Chroma subsampling             : 4:2:0
Bit depth                      : 10 bits
Bits/(Pixel*Frame)             : 0.119
Stream size                    : 14.6 GiB (98%)
Default                        : Yes
Alternate group                : 1
Codec configuration box        : hvcC+dvcC

Audio
ID                             : 2
Format                         : AC-3
Format/Info                    : Audio Coding 3
Commercial name                : Dolby Digital
Codec ID                       : ac-3
Duration                       : 1 h 32 min
Bit rate mode                  : Constant
Bit rate                       : 384 kb/s
Maximum bit rate               : 406 kb/s
Channel(s)                     : 6 channels
Channel layout                 : L R C LFE Ls Rs
Sampling rate                  : 48.0 kHz
Frame rate                     : 31.250 FPS (1536 SPF)
Compression mode               : Lossy
Stream size                    : 253 MiB (2%)
Title                          : English (US)
Language                       : English
Service kind                   : Complete Main

Text #1
ID                             : 3
Format                         : Timed Text
Codec ID                       : tx3g
Duration                       : 1 h 25 min
Bit rate mode                  : Variable
Bit rate                       : 71 b/s
Stream size                    : 44.1 KiB (0%)
Title                          : English
Language                       : English
Forced                         : No

Text #2
ID                             : 4
Format                         : Timed Text
Codec ID                       : tx3g
Duration                       : 1 h 25 min
Bit rate mode                  : Variable
Bit rate                       : 79 b/s
Stream size                    : 49.3 KiB (0%)
Title                          : SDH
Language                       : English
Forced                         : No

Text #3
ID                             : 5
Format                         : Timed Text
Codec ID                       : tx3g
Duration                       : 1 h 25 min
Bit rate mode                  : Variable
Bit rate                       : 49 b/s
Stream size                    : 30.7 KiB (0%)
Title                          : Danish
Language                       : Danish
Forced                         : No

Text #4
ID                             : 6
Format                         : Timed Text
Codec ID                       : tx3g
Duration                       : 1 h 25 min
Bit rate mode                  : Variable
Bit rate                       : 54 b/s
Stream size                    : 33.4 KiB (0%)
Title                          : German
Language                       : German
Forced                         : No

Text #5
ID                             : 7
Format                         : Timed Text
Codec ID                       : tx3g
Duration                       : 1 h 25 min
Bit rate mode                  : Variable
Bit rate                       : 104 b/s
Stream size                    : 64.6 KiB (0%)
Title                          : Modern Greek (1453-)
Language                       : Greek
Forced                         : No

Text #6
ID                             : 8
Format                         : Timed Text
Codec ID                       : tx3g
Duration                       : 1 h 25 min
Bit rate mode                  : Variable
Bit rate                       : 64 b/s
Stream size                    : 39.6 KiB (0%)
Title                          : Spanish
Language                       : Spanish
Forced                         : No

Text #7
ID                             : 9
Format                         : Timed Text
Codec ID                       : tx3g
Duration                       : 1 h 25 min
Bit rate mode                  : Variable
Bit rate                       : 52 b/s
Stream size                    : 32.2 KiB (0%)
Title                          : Finnish
Language                       : Finnish
Forced                         : No

Text #8
ID                             : 10
Format                         : Timed Text
Codec ID                       : tx3g
Duration                       : 1 h 25 min
Bit rate mode                  : Variable
Bit rate                       : 69 b/s
Stream size                    : 43.2 KiB (0%)
Title                          : French
Language                       : French
Forced                         : No

Text #9
ID                             : 11
Format                         : Timed Text
Codec ID                       : tx3g
Duration                       : 1 h 25 min
Bit rate mode                  : Variable
Bit rate                       : 56 b/s
Stream size                    : 34.8 KiB (0%)
Title                          : Italian
Language                       : Italian
Forced                         : No

Text #10
ID                             : 12
Format                         : Timed Text
Codec ID                       : tx3g
Duration                       : 1 h 24 min
Bit rate mode                  : Variable
Bit rate                       : 47 b/s
Stream size                    : 28.9 KiB (0%)
Title                          : Dutch
Language                       : Dutch
Forced                         : No

Text #11
ID                             : 13
Format                         : Timed Text
Codec ID                       : tx3g
Duration                       : 1 h 25 min
Bit rate mode                  : Variable
Bit rate                       : 51 b/s
Stream size                    : 31.9 KiB (0%)
Title                          : Norwegian
Language                       : Norwegian
Forced                         : No

Text #12
ID                             : 14
Format                         : Timed Text
Codec ID                       : tx3g
Duration                       : 1 h 25 min
Bit rate mode                  : Variable
Bit rate                       : 46 b/s
Stream size                    : 28.5 KiB (0%)
Title                          : Polish
Language                       : Polish
Forced                         : No

Text #13
ID                             : 15
Format                         : Timed Text
Codec ID                       : tx3g
Duration                       : 1 h 25 min
Bit rate mode                  : Variable
Bit rate                       : 62 b/s
Stream size                    : 38.4 KiB (0%)
Title                          : Portuguese
Language                       : Portuguese
Forced                         : No

Text #14
ID                             : 16
Format                         : Timed Text
Codec ID                       : tx3g
Duration                       : 1 h 25 min
Bit rate mode                  : Variable
Bit rate                       : 95 b/s
Stream size                    : 59.0 KiB (0%)
Title                          : Russian
Language                       : Russian
Forced                         : No

Text #15
ID                             : 17
Format                         : Timed Text
Codec ID                       : tx3g
Duration                       : 1 h 25 min
Bit rate mode                  : Variable
Bit rate                       : 54 b/s
Stream size                    : 33.7 KiB (0%)
Title                          : Swedish
Language                       : Swedish
Forced                         : No


迅雷下载资源速度为零或资源敏感被和谐时,推荐使用qBittorrent等下载软件,有条件的推荐115更好的下载软件!

下载地址


游客,如果您要查看本帖隐藏内容请回复




.





上一篇:蝙蝠侠:侠影之谜 / Batman Begins (2005) 4K高清版本下载
下一篇:信条(内封简繁中字)/ Tenet.(2020) 4K高清版本下载
回复

使用道具 举报

1

主题

1309

帖子

3955

积分

4K家园VIP

Rank: 9Rank: 9Rank: 9

积分
3955
发表于 2021-12-29 17:24:45 | 显示全部楼层
报告!别开枪,我就是路过来看看的。。。
回复 支持 反对

使用道具 举报

0

主题

7280

帖子

1万

积分

4K家园VIP

Rank: 9Rank: 9Rank: 9

积分
16651
发表于 2021-12-29 17:37:21 | 显示全部楼层
太好啦&萬分感謝版主的無私發佈分享%
回复 支持 反对

使用道具 举报

1

主题

1581

帖子

4385

积分

4K家园VIP

Rank: 9Rank: 9Rank: 9

积分
4385
发表于 2021-12-29 19:25:13 | 显示全部楼层
佩服佩服!
回复 支持 反对

使用道具 举报

0

主题

2

帖子

9

积分

新手上路

Rank: 1

积分
9
发表于 2021-12-29 19:25:44 | 显示全部楼层
你好!我想了解一下怎么下载。
回复 支持 反对

使用道具 举报

54

主题

1535

帖子

4393

积分

4K家园VIP

Rank: 9Rank: 9Rank: 9

积分
4393
发表于 2021-12-29 20:43:54 来自手机 | 显示全部楼层
不错 支持一个了
回复 支持 反对

使用道具 举报

5

主题

1667

帖子

4607

积分

4K家园VIP

Rank: 9Rank: 9Rank: 9

积分
4607
发表于 2021-12-29 21:56:39 | 显示全部楼层
看起来不错
回复 支持 反对

使用道具 举报

1

主题

1332

帖子

3850

积分

4K家园VIP

Rank: 9Rank: 9Rank: 9

积分
3850
发表于 2021-12-29 21:59:28 | 显示全部楼层
是爷们的娘们的都帮顶!大力支持
回复 支持 反对

使用道具 举报

0

主题

689

帖子

2408

积分

注册会员

Rank: 2

积分
2408
发表于 2021-12-30 22:25:25 | 显示全部楼层
感谢楼主分享
回复 支持 反对

使用道具 举报

0

主题

1

帖子

9

积分

新手上路

Rank: 1

积分
9
发表于 2021-12-31 13:26:33 | 显示全部楼层
感谢楼主分享
回复 支持 反对

使用道具 举报

您需要登录后才可以回帖 登录 | 立即注册

本版积分规则

精彩图文
Archiver|手机版|TAG|Sitemap|新帖|专题|联系我们:邮箱: 4kjia.com@gmail.com   

4k家园   ©2019