[4K电影] 信条(内封简繁中字)/ Tenet.(2020) 4K高清版本下载

[复制链接]

1323

主题

1428

帖子

1万

积分

超级版主

Rank: 8Rank: 8

积分
11131
 楼主| 发表于 2021-12-29 17:29:17 | 显示全部楼层 |阅读模式
信条_副本.jpg

◎译  名 信条/Tempus/TENET天能(港/台)/TEN?⊥/天呐天(豆友译名)/时空追捕
◎片  名 Tenet
◎年  代 2020
◎产  地 美国,英国
◎类  别 剧情 / 动作 / 科幻
◎语  言 英语,俄语,乌克兰语,爱沙尼亚语,印地语,挪威语
◎上映日期 2020-08-26(英国) / 2020-09-03(美国) / 2020-09-04(中国大陆)
◎豆瓣评分 7.6/10 from 626689 users
◎豆瓣链接 https://movie.douban.com/subject/30444960/
◎片  长 150分钟
◎导  演 克里斯托弗·诺兰 Christopher Nolan
◎编  剧 克里斯托弗·诺兰 Christopher Nolan
◎主  演 约翰·大卫·华盛顿 John David Washington
      罗伯特·帕丁森 Robert Pattinson
      伊丽莎白·德比茨基 Elizabeth Debicki
      肯尼思·布拉纳 Kenneth Branagh
      亚伦·泰勒-约翰逊 Aaron Taylor-Johnson
      迪宝·卡帕蒂娅 Dimple Kapadia
      克蕾曼丝·波西 Clémence Poésy
      希米什·帕特尔 Himesh Patel
      安德鲁·霍华德 Andrew Howard
      尤里·科洛科利尼科夫 Yuri Kolokolnikov
      迈克尔·凯恩 Michael Caine
      马丁·唐文 Martin Donovan
      卡里娜·韦尔瓦 Carina Velva
      乔纳森·坎普 Jonathan Camp
      凯蒂·麦克凯布 Katie McCabe
      贝恩·科拉科 Bern Colla?o
      安东尼·莫利纳利 Anthony Molinari
      特伦特·布克斯顿 Trent Buxton
      英格丽·玛格斯 Ingrid Margus
      瑞奇·切劳洛 Rich Ceraulo
      劳里·谢泼德 Laurie Shepherd
      马克·克雷尼克 Mark Krenik
      亚历克斯·威克索 Alex Wexo
      丹兹尔·史密斯 Denzil Smith
      马塞尔·萨巴特 Marcel Sabat
      杰里米·西奥伯德 Jeremy Theobald
      菲奥娜·道里夫 Fiona Dourif
      约翰·威斯利·查特曼 John Wesley Chatham
      杰克·卡特莫尔-斯科特 Jack Cutmore-Scott
      杰佛逊·豪尔 Jefferson Hall
      凯莱布·斯比尔亚兹 Caleb Spillyards
      肖恩·艾弗里 Sean Avery
      吉米·斯达 Jimmy Star
      卡德罗莎·奥娜·卡罗尔


◎简  介

  世界存亡危在旦夕,“信条”一词是唯一的线索与武器。主人公穿梭于全球各地,开展特工活动,力求揭示“信条”之谜,并完成一项超越了真实时间的神秘任务。这项任务并非时间之旅,而是【时空逆转】。

◎获奖情况

  第78届金球奖 ?(2021)
  电影类最佳原创配乐(提名)

  第74届英国电影学院奖 ?(2021)
  电影奖最佳特殊视觉效果

  第44届日本电影学院奖 ?(2021)
  最佳外语片(提名)

  第25届美国艺术指导工会奖 ?(2021)
  电影奖最佳幻想电影艺术指导(提名) 内森·克劳利

  第68届美国音效剪辑协会奖 ?(2021)
  金卷轴奖最佳电影音效剪辑(提名)
  金卷轴奖最佳配乐剪辑

  第19届美国视觉效果协会奖 ?(2021)
  最佳特效电影视觉效果(提名)

  第26届美国评论家选择电影奖 ?(2021)
  最佳摄影(提名) 霍伊特·范·霍特玛
  最佳剪辑(提名) 詹妮弗·拉梅
  最佳配乐(提名) 路德维格·戈兰松
  最佳美术指导(提名) 内森·克劳利?/?凯茜·卢卡斯
  最佳视觉效果

  第25届金卫星奖 ?(2021)
  电影部门最佳剧情片(提名)
  电影部门最佳原创配乐(提名) 路德维格·戈兰松
  电影部门最佳摄影(提名) 霍伊特·范·霍特玛
  电影部门最佳视觉效果(提名)
  电影部门最佳音效(提名)

  第41届伦敦影评人协会奖 ?(2021)
  技术成就奖(提名) 詹妮弗·拉梅

  第33届芝加哥影评人协会奖 ?(2020)
  最佳剪辑(提名) 詹妮弗·拉梅
  最佳原创配乐(提名) 路德维格·戈兰松
  最佳视觉效果(提名)

  第24届美国在线影评人协会奖 ?(2021)
  最佳剪辑(提名) 詹妮弗·拉梅
  最佳原创配乐(提名) 路德维格·戈兰松
  最佳摄影(提名) 霍伊特·范·霍特玛

  第7届豆瓣电影年度榜单 ?(2020)
  评分最高的外语电影(提名)

  第6届豆瓣电影年度榜单 ?(2019)
  最值得期待的外语电影(提名)

General
Complete name                  : E:\4K@电影 \Tenet.2020.2160p.WEB-DL.DD5.1.DV.MP4.x265-DVSUX.mp4
Format                         : MPEG-4
Format profile                 : Base Media
Codec ID                       : isom (isom)
File size                      : 15.6 GiB
Duration                       : 2 h 30 min
Overall bit rate mode          : Variable
Overall bit rate               : 14.9 Mb/s
IsTruncated                    : Yes

Video
ID                             : 1
Format                         : HEVC
Format/Info                    : High Efficiency Video Coding
Format profile                 : Main 10@L5@High
HDR format                     : Dolby Vision, Version 1.0, dvhe.05.06, BL+RPU
Codec ID                       : dvhe
Codec ID/Info                  : High Efficiency Video Coding with Dolby Vision
Duration                       : 2 h 30 min
Bit rate                       : 14.5 Mb/s
Width                          : 3 840 pixels
Original width                 : 3 836 pixels
Height                         : 1 744 pixels
Original height                : 1 742 pixels
Display aspect ratio           : 2.2:1
Frame rate mode                : Constant
Frame rate                     : 23.976 (24000/1001) FPS
Color space                    : YUV
Chroma subsampling             : 4:2:0
Bit depth                      : 10 bits
Bits/(Pixel*Frame)             : 0.090
Stream size                    : 15.2 GiB (98%)
Default                        : Yes
Alternate group                : 1
Codec configuration box        : hvcC+dvcC

Audio
ID                             : 2
Format                         : AC-3
Format/Info                    : Audio Coding 3
Commercial name                : Dolby Digital
Codec ID                       : ac-3
Duration                       : 2 h 30 min
Bit rate mode                  : Constant
Bit rate                       : 384 kb/s
Maximum bit rate               : 406 kb/s
Channel(s)                     : 6 channels
Channel layout                 : L R C LFE Ls Rs
Sampling rate                  : 48.0 kHz
Frame rate                     : 31.250 FPS (1536 SPF)
Compression mode               : Lossy
Stream size                    : 412 MiB (3%)
Title                          : English
Language                       : English
Service kind                   : Complete Main

Text #1
ID                             : 3
Format                         : Timed Text
Codec ID                       : tx3g
Duration                       : 2 h 24 min
Bit rate mode                  : Variable
Bit rate                       : 60 b/s
Stream size                    : 63.8 KiB (0%)
Title                          : English
Language                       : English
Forced                         : No

Text #2
ID                             : 4
Format                         : Timed Text
Codec ID                       : tx3g
Duration                       : 2 h 27 min
Bit rate mode                  : Variable
Bit rate                       : 69 b/s
Stream size                    : 74.4 KiB (0%)
Title                          : SDH
Language                       : English
Forced                         : No

Text #3
ID                             : 5
Format                         : Timed Text
Codec ID                       : tx3g
Duration                       : 2 h 29 min
Bit rate mode                  : Variable
Bit rate                       : 87 b/s
Stream size                    : 95.1 KiB (0%)
Title                          : Arabic
Language                       : Arabic
Forced                         : No

Text #4
ID                             : 6
Format                         : Timed Text
Codec ID                       : tx3g
Duration                       : 2 h 29 min
Bit rate mode                  : Variable
Bit rate                       : 81 b/s
Stream size                    : 88.9 KiB (0%)
Title                          : Bulgarian
Language                       : Bulgarian
Forced                         : No

Text #5
ID                             : 7
Format                         : Timed Text
Codec ID                       : tx3g
Duration                       : 2 h 24 min
Bit rate mode                  : Variable
Bit rate                       : 53 b/s
Stream size                    : 55.5 KiB (0%)
Title                          : 中文
Language                       : 中文
Forced                         : No

Text #6
ID                             : 8
Format                         : Timed Text
Codec ID                       : tx3g
Duration                       : 2 h 24 min
Bit rate mode                  : Variable
Bit rate                       : 50 b/s
Stream size                    : 52.5 KiB (0%)
Title                          : 中文
Language                       : 中文
Forced                         : No

Text #7
ID                             : 9
Format                         : Timed Text
Codec ID                       : tx3g
Duration                       : 2 h 29 min
Bit rate mode                  : Variable
Bit rate                       : 52 b/s
Stream size                    : 56.9 KiB (0%)
Title                          : Czech
Language                       : Czech
Forced                         : No

Text #8
ID                             : 10
Format                         : Timed Text
Codec ID                       : tx3g
Duration                       : 2 h 29 min
Bit rate mode                  : Variable
Bit rate                       : 53 b/s
Stream size                    : 58.1 KiB (0%)
Title                          : Danish
Language                       : Danish
Forced                         : No

Text #9
ID                             : 11
Format                         : Timed Text
Codec ID                       : tx3g
Duration                       : 2 h 29 min
Bit rate mode                  : Variable
Bit rate                       : 89 b/s
Stream size                    : 97.9 KiB (0%)
Title                          : Modern Greek (1453-)
Language                       : Greek
Forced                         : No

Text #10
ID                             : 12
Format                         : Timed Text
Codec ID                       : tx3g
Duration                       : 2 h 24 min
Bit rate mode                  : Variable
Bit rate                       : 61 b/s
Stream size                    : 64.4 KiB (0%)
Title                          : Spanish
Language                       : Spanish
Forced                         : No

Text #11
ID                             : 13
Format                         : Timed Text
Codec ID                       : tx3g
Duration                       : 2 h 29 min
Bit rate mode                  : Variable
Bit rate                       : 58 b/s
Stream size                    : 63.7 KiB (0%)
Title                          : Spanish
Language                       : Spanish
Forced                         : No

Text #12
ID                             : 14
Format                         : Timed Text
Codec ID                       : tx3g
Duration                       : 2 h 29 min
Bit rate mode                  : Variable
Bit rate                       : 56 b/s
Stream size                    : 61.4 KiB (0%)
Title                          : Estonian
Language                       : Estonian
Forced                         : No

Text #13
ID                             : 15
Format                         : Timed Text
Codec ID                       : tx3g
Duration                       : 2 h 29 min
Bit rate mode                  : Variable
Bit rate                       : 58 b/s
Stream size                    : 63.4 KiB (0%)
Title                          : Finnish
Language                       : Finnish
Forced                         : No

Text #14
ID                             : 16
Format                         : Timed Text
Codec ID                       : tx3g
Duration                       : 2 h 29 min
Bit rate mode                  : Variable
Bit rate                       : 49 b/s
Stream size                    : 54.1 KiB (0%)
Title                          : French
Language                       : French
Forced                         : No

Text #15
ID                             : 17
Format                         : Timed Text
Codec ID                       : tx3g
Duration                       : 2 h 29 min
Bit rate mode                  : Variable
Bit rate                       : 83 b/s
Stream size                    : 91.0 KiB (0%)
Title                          : Hebrew
Language                       : Hebrew
Forced                         : No

Text #16
ID                             : 18
Format                         : Timed Text
Codec ID                       : tx3g
Duration                       : 2 h 29 min
Bit rate mode                  : Variable
Bit rate                       : 48 b/s
Stream size                    : 53.1 KiB (0%)
Title                          : Hungarian
Language                       : Hungarian
Forced                         : No

Text #17
ID                             : 19
Format                         : Timed Text
Codec ID                       : tx3g
Duration                       : 2 h 24 min
Bit rate mode                  : Variable
Bit rate                       : 45 b/s
Stream size                    : 47.2 KiB (0%)
Title                          : Japanese
Language                       : Japanese
Forced                         : No

Text #18
ID                             : 20
Format                         : Timed Text
Codec ID                       : tx3g
Duration                       : 2 h 29 min
Bit rate mode                  : Variable
Bit rate                       : 56 b/s
Stream size                    : 62.0 KiB (0%)
Title                          : Lithuanian
Language                       : Lithuanian
Forced                         : No

Text #19
ID                             : 21
Format                         : Timed Text
Codec ID                       : tx3g
Duration                       : 2 h 29 min
Bit rate mode                  : Variable
Bit rate                       : 56 b/s
Stream size                    : 61.1 KiB (0%)
Title                          : Latvian
Language                       : Latvian
Forced                         : No

Text #20
ID                             : 22
Format                         : Timed Text
Codec ID                       : tx3g
Duration                       : 2 h 29 min
Bit rate mode                  : Variable
Bit rate                       : 51 b/s
Stream size                    : 56.1 KiB (0%)
Title                          : Dutch
Language                       : Dutch
Forced                         : No

Text #21
ID                             : 23
Format                         : Timed Text
Codec ID                       : tx3g
Duration                       : 2 h 29 min
Bit rate mode                  : Variable
Bit rate                       : 51 b/s
Stream size                    : 55.6 KiB (0%)
Title                          : Norwegian
Language                       : Norwegian
Forced                         : No

Text #22
ID                             : 24
Format                         : Timed Text
Codec ID                       : tx3g
Duration                       : 2 h 29 min
Bit rate mode                  : Variable
Bit rate                       : 48 b/s
Stream size                    : 52.4 KiB (0%)
Title                          : Polish
Language                       : Polish
Forced                         : No

Text #23
ID                             : 25
Format                         : Timed Text
Codec ID                       : tx3g
Duration                       : 2 h 29 min
Bit rate mode                  : Variable
Bit rate                       : 54 b/s
Stream size                    : 59.7 KiB (0%)
Title                          : Portuguese
Language                       : Portuguese
Forced                         : No

Text #24
ID                             : 26
Format                         : Timed Text
Codec ID                       : tx3g
Duration                       : 2 h 29 min
Bit rate mode                  : Variable
Bit rate                       : 54 b/s
Stream size                    : 59.3 KiB (0%)
Title                          : Portuguese
Language                       : Portuguese
Forced                         : No

Text #25
ID                             : 27
Format                         : Timed Text
Codec ID                       : tx3g
Duration                       : 2 h 29 min
Bit rate mode                  : Variable
Bit rate                       : 96 b/s
Stream size                    : 106 KiB (0%)
Title                          : Russian
Language                       : Russian
Forced                         : No

Text #26
ID                             : 28
Format                         : Timed Text
Codec ID                       : tx3g
Duration                       : 2 h 29 min
Bit rate mode                  : Variable
Bit rate                       : 49 b/s
Stream size                    : 53.8 KiB (0%)
Title                          : Slovenian
Language                       : Slovenian
Forced                         : No

Text #27
ID                             : 29
Format                         : Timed Text
Codec ID                       : tx3g
Duration                       : 2 h 29 min
Bit rate mode                  : Variable
Bit rate                       : 54 b/s
Stream size                    : 59.3 KiB (0%)
Title                          : Swedish
Language                       : Swedish
Forced                         : No

Text #28
ID                             : 30
Format                         : Timed Text
Codec ID                       : tx3g
Duration                       : 2 h 29 min
Bit rate mode                  : Variable
Bit rate                       : 117 b/s
Stream size                    : 129 KiB (0%)
Title                          : Thai
Language                       : Thai
Forced                         : No

Text #29
ID                             : 31
Format                         : Timed Text
Codec ID                       : tx3g
Duration                       : 2 h 29 min
Bit rate mode                  : Variable
Bit rate                       : 56 b/s
Stream size                    : 62.1 KiB (0%)
Title                          : Turkish
Language                       : Turkish
Forced                         : No

Text #30
ID                             : 32
Format                         : Timed Text
Codec ID                       : tx3g
Duration                       : 2 h 29 min
Bit rate mode                  : Variable
Bit rate                       : 48 b/s
Stream size                    : 52.9 KiB (0%)
Title                          : 中文
Language                       : 中文
Forced                         : No



迅雷下载资源速度为零或资源敏感被和谐时,推荐使用qBittorrent等下载软件,有条件的推荐115更好的下载软件!

下载地址


游客,如果您要查看本帖隐藏内容请回复






.

上一篇:怪兽电力公司 / Monsters, Inc.(2001) 4K高清版本下载
下一篇:长津湖 (国语中字) /The Battle at Lake Changjin (2021)4K高清版本下载
回复

使用道具 举报

1

主题

1704

帖子

4720

积分

4K家园VIP

Rank: 9Rank: 9Rank: 9

积分
4720
发表于 2021-12-29 17:29:21 | 显示全部楼层
回复 支持 反对

使用道具 举报

0

主题

7237

帖子

1万

积分

4K家园VIP

Rank: 9Rank: 9Rank: 9

积分
16569
发表于 2021-12-29 17:35:38 | 显示全部楼层
太好啦&萬分感謝版主的無私發佈分享%
回复 支持 反对

使用道具 举报

0

主题

27

帖子

201

积分

新手上路

Rank: 1

积分
201
发表于 2021-12-29 17:37:19 | 显示全部楼层
感謝版主的無私發佈分享
回复 支持 反对

使用道具 举报

0

主题

1

帖子

10

积分

新手上路

Rank: 1

积分
10
发表于 2021-12-29 21:13:08 | 显示全部楼层
感謝版主的無私發佈分享
回复 支持 反对

使用道具 举报

0

主题

8

帖子

30

积分

新手上路

Rank: 1

积分
30
发表于 2021-12-30 06:12:31 | 显示全部楼层
12312313
回复

使用道具 举报

0

主题

25

帖子

229

积分

新手上路

Rank: 1

积分
229
发表于 2021-12-30 09:24:20 | 显示全部楼层
多谢楼主分享
回复 支持 反对

使用道具 举报

0

主题

16

帖子

121

积分

新手上路

Rank: 1

积分
121
发表于 2021-12-30 09:55:06 | 显示全部楼层
666666666666666666
回复 支持 反对

使用道具 举报

0

主题

688

帖子

2402

积分

注册会员

Rank: 2

积分
2402
发表于 2021-12-30 22:25:14 | 显示全部楼层
感谢楼主分享
回复 支持 反对

使用道具 举报

2

主题

207

帖子

2903

积分

注册会员

Rank: 2

积分
2903
发表于 2021-12-31 10:05:09 | 显示全部楼层
感谢楼主分享
回复 支持 反对

使用道具 举报

您需要登录后才可以回帖 登录 | 立即注册

本版积分规则

精彩图文
Archiver|手机版|TAG|Sitemap|新帖|专题|联系我们:邮箱: 4kjia.com@gmail.com   

4k家园   ©2019