[4K UHD 蓝光原盘] 哈尔的移动城堡 / Howls.Moving.Castle (2004) 4K蓝光版本下载

[复制链接]

1310

主题

1377

帖子

1万

积分

超级版主

Rank: 8Rank: 8

积分
15370
 楼主| 发表于 2021-12-31 10:45:04 | 显示全部楼层 |阅读模式
本帖最后由 没完没了 于 2021-12-31 11:25 编辑

QQ图片20211231102011_副本.png

◎译  名 哈尔的移动城堡/豪尔的机动城堡/霍尔的移动城堡(台)/Hauru no ugoku shiro/Howl's Moving Castle
◎片  名 ハウルの動く城
◎年  代 2004
◎产  地 日本
◎类  别 动画/奇幻/冒险
◎语  言 日语
◎上映日期 2004-09-05(威尼斯电影节)/2004-11-20(日本)
◎IMDb评分  8.2/10 from 363907 users
◎IMDb链接  https://www.imdb.com/title/tt0347149/
◎豆瓣评分 9.1/10 from 869983 users
◎豆瓣链接 https://douban.com/subject/1308807/
◎片  长 119分钟
◎导  演 宫崎骏 Hayao Miyazaki
◎编  剧 宫崎骏 Hayao Miyazaki / 黛安娜·温恩·琼斯 Diana Wynne Jones
◎主  演 倍赏千惠子 Chieko Baishô
       木村拓哉 Takuya Kimura
       美轮明宏 Akihiro Miwa
       我修院达也 Tatsuya Gashûin
       神木隆之介 Ryûnosuke Kamiki
       伊崎充则 Mitsunori Isaki
       大泉洋 Yô Ôizumi
       大塚明夫 Akio Ôtsuka
       原田大二郎 Daijiro Harada
       加藤治子 Haruko Kato
       都筑香弥子 Yayoi Kazuki
       克里斯蒂安·贝尔 Christian Bale
       艾米莉·莫迪默 Emily Mortimer
       吉娜·马隆 Jena Malone
       乔什·哈切森 Josh Hutcherson
       劳伦·白考尔 Lauren Bacall
       比利·克里斯托 Billy Crystal
       布莱思·丹纳 Blythe Danner
       安田显 Ken Yasuda
       简·西蒙斯 Jean Simmons
       户次重幸 Shigeyuki Totsugi
       菅野莉央 Rio Kanno
       威尔·弗里德尔 Will Friedle
       莉莉娜·穆米 Liliana Mumy
       卡洛斯·阿拉斯拉奇 Carlos Alazraqui
       克里斯平·弗里曼 Crispin Freeman
       达兰·诺里斯 Daran Norris
       森崎博之 Hiroyuki Morisaki
       霍利·多夫 Holly Dorff
       保村真 Makoto Yasumura
       理查德·史蒂文·霍维茨 Richard Steven Horvitz
       纽威尔·亚历山大 Newell Alexander
       艾克·艾森曼 Ike Eisenmann
       大卫·考吉尔 David Cowgill
       科妮莉亚·达尔格林 Cornelia Dahlgren
       田中宏树 Tanaka Hiroki
       彼得·雷纳迪 Peter Renaday
       霍普·利维 Hope Levy
       摩西·德里耶 Moosie Drier
       苏珊妮·布莱克史丽 Susanne Blakeslee


◎简  介

  继母因无力负担生活,将苏菲和她的两个妹妹都送到了制帽店去当学徒。两个妹妹很快先后就离开了制帽店去追寻各自的梦想,只有苏菲坚持了下来。一天,小镇旁边来了一座移动堡垒,传说堡垒的主人哈尔专吸取年青姑娘的灵魂,所以小镇的姑娘都不敢靠近。

  一个恶毒的巫婆为了报复苏菲与哈尔见面,用巫术把她变成了一个80岁的老太婆,而且苏菲还不能对别人说出自己身中的巫术。无奈,苏菲决定独自一人逃离小镇。天黑了,虚弱的苏菲没走多远,来到了移动城堡。心想自己已经是老太婆了,苏菲壮着胆子走进了城堡。不想,遇到了和她遭遇相同的火焰魔。两人约定彼此帮助对方打破各自的咒语……


◎获奖情况

  第78届奥斯卡金像奖  (2006)
  最佳动画长片(提名) 宫崎骏

  第61届威尼斯电影节  (2004)
  主竞赛单元金狮奖(提名) 宫崎骏
  金奥赛拉奖杰出技术贡献奖

  第25届香港电影金像奖  (2006)
  最佳亚洲电影(提名)

  第33届动画安妮奖  (2006)
  最佳动画长片(提名)
  最佳导演(提名) 宫崎骏
  最佳编剧(提名) 辛迪·戴维斯·休伊特 / 唐纳德·H·休伊特 / 宫崎骏
General

Complete name                  : E:\Howls.Moving.Castle.2004.BDRip.2160p.UHD.SDR.Eng.DTS-HD.HRA.DD5.1.gerald99
Format                         : Matroska
Format version                 : Version 4
File size                      : 24.4 GiB
Duration                       : 1 h 59 min
Overall bit rate               : 29.3 Mb/s
Movie name                     : Howl's Moving Castle
Encoded date                   : UTC 2021-12-20 21:44:11
Writing application            : mkvmerge v63.0.0 ('Everything') 64-bit
Writing library                : libebml v1.4.2 + libmatroska v1.6.4
IsTruncated                    : Yes

Video
ID                             : 1
Format                         : HEVC
Format/Info                    : High Efficiency Video Coding
Format profile                 : Main 10@L5.2@High
Codec ID                       : V_MPEGH/ISO/HEVC
Duration                       : 1 h 59 min
Bit rate                       : 25.1 Mb/s
Width                          : 3 840 pixels
Height                         : 2 160 pixels
Display aspect ratio           : 16:9
Frame rate mode                : Constant
Frame rate                     : 23.976 (24000/1001) FPS
Color space                    : YUV
Chroma subsampling             : 4:2:0
Bit depth                      : 10 bits
Bits/(Pixel*Frame)             : 0.126
Stream size                    : 20.9 GiB (86%)
Title                          : Howl's Moving Castle
Default                        : Yes
Forced                         : No
Color range                    : Limited
Color primaries                : BT.709
Transfer characteristics       : BT.709
Matrix coefficients            : BT.709

Audio #1
ID                             : 2
Format                         : DTS XBR
Format/Info                    : Digital Theater Systems
Commercial name                : DTS-HD High Resolution Audio
Codec ID                       : A_DTS
Duration                       : 1 h 59 min
Bit rate mode                  : Constant
Bit rate                       : 3 018 kb/s
Channel(s)                     : 6 channels
Channel layout                 : C L R Ls Rs LFE
Sampling rate                  : 48.0 kHz
Frame rate                     : 93.750 FPS (512 SPF)
Bit depth                      : 24 bits
Compression mode               : Lossy
Stream size                    : 2.51 GiB (10%)
Title                          : Digital Theater Systems High Res Master Audio 5.1
Language                       : English
Default                        : Yes
Forced                         : No

Audio #2
ID                             : 3
Format                         : AC-3
Format/Info                    : Audio Coding 3
Commercial name                : Dolby Digital
Codec ID                       : A_AC3
Duration                       : 1 h 59 min
Bit rate mode                  : Constant
Bit rate                       : 640 kb/s
Channel(s)                     : 6 channels
Channel layout                 : L R C LFE Ls Rs
Sampling rate                  : 48.0 kHz
Frame rate                     : 31.250 FPS (1536 SPF)
Compression mode               : Lossy
Stream size                    : 545 MiB (2%)
Title                          : Dolby Digital 5.1
Language                       : English
Service kind                   : Complete Main
Default                        : No
Forced                         : No

Text #1
ID                             : 4
Format                         : PGS
Muxing mode                    : zlib
Codec ID                       : S_HDMV/PGS
Codec ID/Info                  : Picture based subtitle format used on BDs/HD-DVDs
Language                       : English
Default                        : No
Forced                         : No

Text #2
ID                             : 5
Format                         : PGS
Muxing mode                    : zlib
Codec ID                       : S_HDMV/PGS
Codec ID/Info                  : Picture based subtitle format used on BDs/HD-DVDs
Language                       : English
Default                        : No
Forced                         : No

Menu
00:00:00.000                   : :Глава 01
00:03:00.000                   : :Глава 02
00:06:00.000                   : :Глава 03
00:09:00.000                   : :Глава 04
00:12:00.000                   : :Глава 05
00:15:00.000                   : :Глава 06
00:18:00.000                   : :Глава 07
00:21:00.000                   : :Глава 08
00:24:00.000                   : :Глава 09
00:27:00.000                   : :Глава 10
00:30:00.000                   : :Глава 11
00:33:00.000                   : :Глава 12
00:36:00.000                   : :Глава 13
00:39:00.000                   : :Глава 14
00:42:00.000                   : :Глава 15
00:45:00.000                   : :Глава 16
00:48:00.000                   : :Глава 17
00:51:00.000                   : :Глава 18
00:54:00.000                   : :Глава 19
00:57:00.000                   : :Глава 20
01:00:00.000                   : :Глава 21
01:03:00.000                   : :Глава 22
01:06:00.000                   : :Глава 23
01:09:00.000                   : :Глава 24
01:12:00.000                   : :Глава 25
01:15:00.000                   : :Глава 26
01:18:00.000                   : :Глава 27
01:21:00.000                   : :Глава 28
01:24:00.000                   : :Глава 29
01:27:00.000                   : :Глава 30
01:30:00.000                   : :Глава 31
01:33:00.000                   : :Глава 32
01:36:00.000                   : :Глава 33
01:39:00.000                   : :Глава 34
01:42:00.000                   : :Глава 35
01:45:00.000                   : :Глава 36
01:48:00.000                   : :Глава 37
01:51:00.000                   : :Глава 38
01:54:00.000                   : :Глава 39
01:57:00.000                   : :Глава 40


4K蓝光[原盘+REMUX]资源,新种推荐使用qBittorrent、uTorrent等下载软件,有条件的推荐115更好的下载软件!

哈尔的移动城堡(24.66GB)Howls.Moving.Castle.2004.BDRip.2160p.UHD.SDR.Eng.DTS-HD.HRA.DD5.1.gerald99
游客,如果您要查看本帖隐藏内容请回复



相关其他4K版本下载链接:
《哈尔的移动城堡(俄版)》4K蓝光REMUX 版本下载
哈尔的移动城堡/Howls.Moving.Castle (2004) 4K高清版下载





1心,爱心.gif

上一篇:北区侦缉队 / The.Stronghold (2020) 4K蓝光[原盘+REMUX]版本下载
下一篇:世界末日 / Armageddon (1998) 4K蓝光版本下载
回复

使用道具 举报

1

主题

1347

帖子

3883

积分

4K家园VIP

Rank: 9Rank: 9Rank: 9

积分
3883
发表于 2021-12-31 10:45:10 来自手机 | 显示全部楼层
谢谢楼主
回复 支持 反对

使用道具 举报

59

主题

1524

帖子

4368

积分

4K家园VIP

Rank: 9Rank: 9Rank: 9

积分
4368
发表于 2021-12-31 10:48:20 | 显示全部楼层
这个资源我记得是一套的,楼主还有没有
回复 支持 反对

使用道具 举报

3

主题

1352

帖子

3902

积分

4K家园VIP

Rank: 9Rank: 9Rank: 9

积分
3902
发表于 2021-12-31 11:12:11 | 显示全部楼层
4K家园不错,希望这种资源越多越好
回复 支持 反对

使用道具 举报

2

主题

1362

帖子

3936

积分

4K家园VIP

Rank: 9Rank: 9Rank: 9

积分
3936
发表于 2021-12-31 11:45:09 | 显示全部楼层
还有没有别的资源,多分享些
回复 支持 反对

使用道具 举报

2

主题

1534

帖子

4174

积分

4K家园VIP

Rank: 9Rank: 9Rank: 9

积分
4174
发表于 2021-12-31 12:05:22 来自手机 | 显示全部楼层
4K家园资源最近貌似越来越多了
回复 支持 反对

使用道具 举报

0

主题

237

帖子

1455

积分

注册会员

Rank: 2

积分
1455
发表于 2021-12-31 14:04:36 | 显示全部楼层
希望这种资源越多越好
回复 支持 反对

使用道具 举报

0

主题

5

帖子

66

积分

4K家园VIP

Rank: 9Rank: 9Rank: 9

积分
66
发表于 2021-12-31 15:55:48 | 显示全部楼层
感谢分享
回复

使用道具 举报

0

主题

4

帖子

22

积分

新手上路

Rank: 1

积分
22
发表于 2021-12-31 16:59:39 | 显示全部楼层
能免费看不
回复 支持 反对

使用道具 举报

0

主题

10

帖子

77

积分

新手上路

Rank: 1

积分
77
发表于 2021-12-31 17:26:52 | 显示全部楼层

4K家园不错,希望这个资源越多越好
回复 支持 反对

使用道具 举报

您需要登录后才可以回帖 登录 | 立即注册

本版积分规则

精彩图文
Archiver|手机版|TAG|Sitemap|新帖|专题|联系我们:邮箱: 4kjia.com@gmail.com   

4k家园   ©2019