[国家地理] [4K国家地理] 我知道的冬天 (2021) [2160P/MKV/641MB]

[复制链接]

2764

主题

3122

帖子

2万

积分

超级版主

Rank: 8Rank: 8

积分
26173
 楼主| 发表于 2022-1-15 20:42:00 | 显示全部楼层 |阅读模式

我知道的冬天(641MB) (2021) WEBRip 2160p.mkv_20220104_130946.358.jpg 我知道的冬天(641MB) (2021) WEBRip 2160p.mkv_20220104_130952.430.jpg 我知道的冬天(641MB) (2021) WEBRip 2160p.mkv_20220104_131001.374.jpg 我知道的冬天(641MB) (2021) WEBRip 2160p.mkv_20220104_131006.479.jpg 我知道的冬天(641MB) (2021) WEBRip 2160p.mkv_20220104_131017.566.jpg 我知道的冬天(641MB) (2021) WEBRip 2160p.mkv_20220104_131024.294.jpg

影片信息
片名:我所知道的冬天
上映时间: 2021
类型: 物种
导演: Riku Karjalainen

关于电影:

          “冬天,我知道” - 一部关于严酷同时又如此美丽的芬兰冬天,由于气候变化正在发生显着变化。随着北极环境失去其定义的特征,如雪和寒冷,适应寒冷的动物物种失去了它们的自然栖息地,而我们北极人民失去了我们自己的重要组成部分。

General
Complete name                  : E:\我知道的冬天(641MB) (2021) WEBRip 2160p.mkv
Format                         : Matroska
Format version                 : Version 4
File size                      : 641 MiB
Duration                       : 7 min 7 s
Overall bit rate               : 12.6 Mb/s
Encoded date                   : UTC 2021-12-30 19:35:27
Writing application            : mkvmerge v63.0.0 ('Everything') 64-bit
Writing library                : libebml v1.4.2 + libmatroska v1.6.4

Video
ID                             : 1
Format                         : AVC
Format/Info                    : Advanced Video Codec
Format profile                 : High@L5.2
Format settings                : CABAC / 5 Ref Frames
Format settings, CABAC         : Yes
Format settings, Reference fra : 5 frames
Codec ID                       : V_MPEG4/ISO/AVC
Duration                       : 7 min 7 s
Bit rate                       : 12.3 Mb/s
Width                          : 3 840 pixels
Height                         : 2 160 pixels
Display aspect ratio           : 16:9
Frame rate mode                : Constant
Frame rate                     : 25.000 FPS
Color space                    : YUV
Chroma subsampling             : 4:2:0
Bit depth                      : 8 bits
Scan type                      : Progressive
Bits/(Pixel*Frame)             : 0.059
Stream size                    : 628 MiB (98%)
Writing library                : x264 core 164 r10 66a5bc1
Encoding settings              : cabac=1 / ref=5 / deblock=1:0:0 / analyse=0x3:0x113 / me=hex / subme=8 / psy=1 / psy_rd=1.00:0.00 / mixed_ref=1 / me_range=16 / chroma_me=1 / trellis=2 / 8x8dct=1 / cqm=0 / deadzone=21,11 / fast_pskip=1 / chroma_qp_offset=-2 / threads=48 / lookahead_threads=8 / sliced_threads=0 / nr=0 / decimate=1 / interlaced=0 / bluray_compat=0 / stitchable=1 / constrained_intra=0 / bframes=3 / b_pyramid=2 / b_adapt=2 / b_bias=0 / direct=3 / weightb=1 / open_gop=0 / weightp=2 / keyint=infinite / keyint_min=25 / scenecut=40 / intra_refresh=0 / rc_lookahead=50 / rc=crf / mbtree=1 / crf=20.0 / qcomp=0.60 / qpmin=5 / qpmax=69 / qpstep=4 / vbv_maxrate=24200 / vbv_bufsize=66000 / crf_max=0.0 / nal_hrd=none / filler=0 / ip_ratio=1.40 / aq=1:1.00
Default                        : Yes
Forced                         : No
Color range                    : Limited
Color primaries                : BT.709
Transfer characteristics       : BT.709
Matrix coefficients            : BT.709

Audio
ID                             : 2
Format                         : AAC LC
Format/Info                    : Advanced Audio Codec Low Complexity
Codec ID                       : A_AAC-2
Duration                       : 7 min 7 s
Bit rate                       : 253 kb/s
Channel(s)                     : 2 channels
Channel layout                 : L R
Sampling rate                  : 48.0 kHz
Frame rate                     : 46.875 FPS (1024 SPF)
Compression mode               : Lossy
Delay relative to video        : -80 ms
Stream size                    : 12.9 MiB (2%)
Default                        : Yes
Forced                         : No

下载地址:

****此区域为收费内容****    需支付 15 金币后可查看立即购买




.

上一篇:4K美女视频] 韩国女团丰乳肥臀部性感内衣热舞 4K视频下载
下一篇:[4K国家地理] 秋天的白云岩 (2021) [2160P/MKV/665MB]
回复

使用道具 举报

2

主题

1367

帖子

3891

积分

4K家园VIP

Rank: 9Rank: 9Rank: 9

积分
3891
发表于 2022-1-15 20:42:06 | 显示全部楼层
支持楼主,用户楼主,楼主英明呀!!!
回复 支持 反对

使用道具 举报

0

主题

8229

帖子

1万

积分

4K家园VIP

Rank: 9Rank: 9Rank: 9

积分
18809
发表于 2022-1-15 21:38:19 | 显示全部楼层
芬蘭冬天4k
回复 支持 反对

使用道具 举报

47

主题

1525

帖子

4417

积分

4K家园VIP

Rank: 9Rank: 9Rank: 9

积分
4417
发表于 2022-1-16 03:06:28 | 显示全部楼层
我只是路过,不发表意见
回复 支持 反对

使用道具 举报

1

主题

1415

帖子

4089

积分

4K家园VIP

Rank: 9Rank: 9Rank: 9

积分
4089
发表于 2022-1-16 04:42:32 | 显示全部楼层
路过 帮顶 嘿嘿
回复 支持 反对

使用道具 举报

2

主题

1348

帖子

3912

积分

4K家园VIP

Rank: 9Rank: 9Rank: 9

积分
3912
发表于 2022-1-16 16:09:28 | 显示全部楼层
我只是路过,不发表意见
回复 支持 反对

使用道具 举报

1

主题

1303

帖子

3935

积分

4K家园VIP

Rank: 9Rank: 9Rank: 9

积分
3935
发表于 2022-1-16 17:31:34 | 显示全部楼层
没明白
回复 支持 反对

使用道具 举报

0

主题

121

帖子

540

积分

新手上路

Rank: 1

积分
540
发表于 2022-1-16 20:35:33 | 显示全部楼层
支持楼主,用户楼主,楼主英明呀
回复 支持 反对

使用道具 举报

您需要登录后才可以回帖 登录 | 立即注册

本版积分规则

精彩图文
Archiver|手机版|TAG|Sitemap|新帖|专题|联系我们:邮箱: 4kjia.com@gmail.com   

4k家园   ©2019