[国家地理] [4K国家地理] 秋天的白云岩 (2021) [2160P/MKV/665MB]

[复制链接]

2652

主题

2986

帖子

2万

积分

超级版主

Rank: 8Rank: 8

积分
24945
 楼主| 发表于 3 天前 | 显示全部楼层 |阅读模式


秋天的白云岩(665MB)Osennie.Dolomity_The.Dolomites.in.Autumn.2021.WEBR.mkv_2022.jpg 秋天的白云岩(665MB)Osennie.Dolomity_The.Dolomites.in.Autumn.2021.WEBR.mkv_2022.jpg 秋天的白云岩(665MB)Osennie.Dolomity_The.Dolomites.in.Autumn.2021.WEBR.mkv_2022.jpg 秋天的白云岩(665MB)Osennie.Dolomity_The.Dolomites.in.Autumn.2021.WEBR.mkv_2022.jpg 秋天的白云岩(665MB)Osennie.Dolomity_The.Dolomites.in.Autumn.2021.WEBR.mkv_2022.jpg 秋天的白云岩(665MB)Osennie.Dolomity_The.Dolomites.in.Autumn.2021.WEBR.mkv_2022.jpg

关于信息
标题秋天白云岩
国家:意大利
持续时间: 00 : 04 : 45
发行年份2021
类型: 种

关于影片:

         奇妙的高山,令人着迷的景观和原始大自然中的白云石或白云岩南蒂罗尔,意大利。


GeneralComplete name                  : J:\秋天的白云岩(665MB)Osennie.Dolomity_The.Dolomites.in.Autumn.2021.WEBR.mkv
Format                         : Matroska
Format version                 : Version 4
File size                      : 666 MiB
Duration                       : 4 min 45 s
Overall bit rate               : 19.5 Mb/s
Encoded date                   : UTC 2021-12-30 17:51:02
Writing application            : mkvmerge v63.0.0 ('Everything') 64-bit
Writing library                : libebml v1.4.2 + libmatroska v1.6.4

Video
ID                             : 1
Format                         : AVC
Format/Info                    : Advanced Video Codec
Format profile                 : High@L5.2
Format settings                : CABAC / 5 Ref Frames
Format settings, CABAC         : Yes
Format settings, Reference fra : 5 frames
Codec ID                       : V_MPEG4/ISO/AVC
Duration                       : 4 min 45 s
Bit rate                       : 19.3 Mb/s
Width                          : 4 058 pixels
Height                         : 2 160 pixels
Display aspect ratio           : 1.85:1
Frame rate mode                : Constant
Frame rate                     : 60.000 FPS
Color space                    : YUV
Chroma subsampling             : 4:2:0
Bit depth                      : 8 bits
Scan type                      : Progressive
Bits/(Pixel*Frame)             : 0.037
Stream size                    : 657 MiB (99%)
Writing library                : x264 core 164 r10 66a5bc1
Encoding settings              : cabac=1 / ref=5 / deblock=1:0:0 / analyse=0x3:0x113 / me=hex / subme=8 / psy=1 / psy_rd=1.00:0.00 / mixed_ref=1 / me_range=16 / chroma_me=1 / trellis=2 / 8x8dct=1 / cqm=0 / deadzone=21,11 / fast_pskip=1 / chroma_qp_offset=-2 / threads=48 / lookahead_threads=8 / sliced_threads=0 / nr=0 / decimate=1 / interlaced=0 / bluray_compat=0 / stitchable=1 / constrained_intra=0 / bframes=3 / b_pyramid=2 / b_adapt=2 / b_bias=0 / direct=3 / weightb=1 / open_gop=0 / weightp=2 / keyint=infinite / keyint_min=60 / scenecut=40 / intra_refresh=0 / rc_lookahead=50 / rc=crf / mbtree=1 / crf=20.0 / qcomp=0.60 / qpmin=5 / qpmax=69 / qpstep=4 / vbv_maxrate=24200 / vbv_bufsize=66000 / crf_max=0.0 / nal_hrd=none / filler=0 / ip_ratio=1.40 / aq=1:1.00
Default                        : Yes
Forced                         : No
Color range                    : Limited
Color primaries                : BT.709
Transfer characteristics       : BT.709
Matrix coefficients            : BT.709

Audio
ID                             : 2
Format                         : AAC LC
Format/Info                    : Advanced Audio Codec Low Complexity
Codec ID                       : A_AAC-2
Duration                       : 4 min 45 s
Bit rate                       : 253 kb/s
Channel(s)                     : 2 channels
Channel layout                 : L R
Sampling rate                  : 48.0 kHz
Frame rate                     : 46.875 FPS (1024 SPF)
Compression mode               : Lossy
Stream size                    : 8.63 MiB (1%)
Default                        : Yes
Forced                         : No

下载地址:

****此区域为收费内容****    需支付 15 金币后可查看立即购买




.

上一篇:[4K国家地理] 我知道的冬天 (2021) [2160P/MKV/641MB]
下一篇:[4K国家地理] 春暖中的速尔群岛 (2021) [2160P/MKV/475MB]
回复

使用道具 举报

0

主题

1300

帖子

3912

积分

4K家园VIP

Rank: 9Rank: 9Rank: 9

积分
3912
发表于 3 天前 | 显示全部楼层
珍爱生命,果断回帖。
回复 支持 反对

使用道具 举报

0

主题

7237

帖子

1万

积分

4K家园VIP

Rank: 9Rank: 9Rank: 9

积分
16569
发表于 3 天前 | 显示全部楼层
意大利秋天白雲岩4k
回复 支持 反对

使用道具 举报

0

主题

11

帖子

66

积分

新手上路

Rank: 1

积分
66
发表于 前天 20:04 | 显示全部楼层
感谢楼主分享
回复 支持 反对

使用道具 举报

56

主题

1512

帖子

4420

积分

4K家园VIP

Rank: 9Rank: 9Rank: 9

积分
4420
发表于 前天 20:06 | 显示全部楼层
楼主呀,,,您太有才了。。。
回复 支持 反对

使用道具 举报

1

主题

1363

帖子

3933

积分

4K家园VIP

Rank: 9Rank: 9Rank: 9

积分
3933
发表于 昨天 05:36 | 显示全部楼层
体验下4K版的
回复 支持 反对

使用道具 举报

0

主题

22

帖子

379

积分

4K家园VIP

Rank: 9Rank: 9Rank: 9

积分
379
发表于 昨天 07:44 | 显示全部楼层
珍爱生命,果断回帖。
回复 支持 反对

使用道具 举报

2

主题

1413

帖子

4075

积分

4K家园VIP

Rank: 9Rank: 9Rank: 9

积分
4075
发表于 昨天 17:40 | 显示全部楼层
4K家园不错,希望这种资源越多越好
回复 支持 反对

使用道具 举报

3

主题

1343

帖子

4047

积分

4K家园VIP

Rank: 9Rank: 9Rank: 9

积分
4047
发表于 昨天 19:34 | 显示全部楼层
一直在看
回复 支持 反对

使用道具 举报

您需要登录后才可以回帖 登录 | 立即注册

本版积分规则

精彩图文
Archiver|手机版|TAG|Sitemap|新帖|专题|联系我们:邮箱: 4kjia.com@gmail.com   

4k家园   ©2019