[国家地理] [4K国家地理] 春暖中的速尔群岛 (2021) [2160P/MKV/475MB]

[复制链接]

2652

主题

2986

帖子

2万

积分

超级版主

Rank: 8Rank: 8

积分
24945
 楼主| 发表于 7 天前 | 显示全部楼层 |阅读模式
觉醒(475MB) (2021) WEBRip 2160p.mkv_20220104_132220.927.jpg 觉醒(475MB) (2021) WEBRip 2160p.mkv_20220104_132248.703.jpg 觉醒(475MB) (2021) WEBRip 2160p.mkv_20220104_132255.038.jpg 觉醒(475MB) (2021) WEBRip 2160p.mkv_20220104_132302.999.jpg 觉醒(475MB) (2021) WEBRip 2160p.mkv_20220104_132313.415.jpg 觉醒(475MB) (2021) WEBRip 2160p.mkv_20220104_132328.383.jpg

关于信息
片名:春暖中的速尔群岛
发行年: 2021
国家:葡萄牙
持续时间: 00 : 03 : 08
类型: 种
导演:恩里克·格拉西亚·埃雷拉

关于影片:一个

       感官视频首诗讲述一个年轻女子的梦想,通过不变岛的她的精神和感官之旅亚速尔群岛。
General
Complete name                  : J:\春暖中的速尔群岛(475MB) (2021) WEBRip 2160p.mkv
Format                         : Matroska
Format version                 : Version 4
File size                      : 476 MiB
Duration                       : 3 min 8 s
Overall bit rate               : 21.1 Mb/s
Encoded date                   : UTC 2021-12-30 19:59:59
Writing application            : mkvmerge v63.0.0 ('Everything') 64-bit
Writing library                : libebml v1.4.2 + libmatroska v1.6.4

Video
ID                             : 1
Format                         : AVC
Format/Info                    : Advanced Video Codec
Format profile                 : High@L5.2
Format settings                : CABAC / 5 Ref Frames
Format settings, CABAC         : Yes
Format settings, Reference fra : 5 frames
Codec ID                       : V_MPEG4/ISO/AVC
Duration                       : 3 min 8 s
Bit rate                       : 20.9 Mb/s
Width                          : 3 840 pixels
Height                         : 2 160 pixels
Display aspect ratio           : 16:9
Frame rate mode                : Constant
Frame rate                     : 25.000 FPS
Color space                    : YUV
Chroma subsampling             : 4:2:0
Bit depth                      : 8 bits
Scan type                      : Progressive
Bits/(Pixel*Frame)             : 0.101
Stream size                    : 470 MiB (99%)
Writing library                : x264 core 164 r10 66a5bc1
Encoding settings              : cabac=1 / ref=5 / deblock=1:0:0 / analyse=0x3:0x113 / me=hex / subme=8 / psy=1 / psy_rd=1.00:0.00 / mixed_ref=1 / me_range=16 / chroma_me=1 / trellis=2 / 8x8dct=1 / cqm=0 / deadzone=21,11 / fast_pskip=1 / chroma_qp_offset=-2 / threads=48 / lookahead_threads=8 / sliced_threads=0 / nr=0 / decimate=1 / interlaced=0 / bluray_compat=0 / stitchable=1 / constrained_intra=0 / bframes=3 / b_pyramid=2 / b_adapt=2 / b_bias=0 / direct=3 / weightb=1 / open_gop=0 / weightp=2 / keyint=infinite / keyint_min=25 / scenecut=40 / intra_refresh=0 / rc_lookahead=50 / rc=crf / mbtree=1 / crf=20.0 / qcomp=0.60 / qpmin=5 / qpmax=69 / qpstep=4 / vbv_maxrate=24200 / vbv_bufsize=66000 / crf_max=0.0 / nal_hrd=none / filler=0 / ip_ratio=1.40 / aq=1:1.00
Default                        : Yes
Forced                         : No
Color range                    : Limited
Color primaries                : BT.709
Transfer characteristics       : BT.709
Matrix coefficients            : BT.709

Audio
ID                             : 2
Format                         : AAC LC
Format/Info                    : Advanced Audio Codec Low Complexity
Codec ID                       : A_AAC-2
Duration                       : 3 min 8 s
Bit rate                       : 253 kb/s
Channel(s)                     : 2 channels
Channel layout                 : L R
Sampling rate                  : 48.0 kHz
Frame rate                     : 46.875 FPS (1024 SPF)
Compression mode               : Lossy
Delay relative to video        : -80 ms
Stream size                    : 5.70 MiB (1%)
Default                        : Yes
Forced                         : No
下载地址:

****此区域为收费内容****    需支付 15 金币后可查看立即购买




.

上一篇:[4K国家地理] 秋天的白云岩 (2021) [2160P/MKV/665MB]
下一篇:[4K国家地理] 逐渐消失的冰川 (2021) [2160P/MKV/980MB]
回复

使用道具 举报

44

主题

1429

帖子

4131

积分

4K家园VIP

Rank: 9Rank: 9Rank: 9

积分
4131
发表于 7 天前 | 显示全部楼层
前排顶起
回复 支持 反对

使用道具 举报

0

主题

7237

帖子

1万

积分

4K家园VIP

Rank: 9Rank: 9Rank: 9

积分
16569
发表于 7 天前 | 显示全部楼层
葡萄牙春暖中的速爾群島4k
回复 支持 反对

使用道具 举报

0

主题

2

帖子

19

积分

新手上路

Rank: 1

积分
19
发表于 7 天前 | 显示全部楼层
最养眼的就是这个节目
回复 支持 反对

使用道具 举报

1

主题

1475

帖子

4275

积分

4K家园VIP

Rank: 9Rank: 9Rank: 9

积分
4275
发表于 7 天前 | 显示全部楼层
你们要是有4K资源记得分享,别小气
回复 支持 反对

使用道具 举报

0

主题

1419

帖子

4463

积分

中级会员

Rank: 4

积分
4463
发表于 6 天前 | 显示全部楼层
​谢楼主分享!​太帅了
回复 支持 反对

使用道具 举报

0

主题

1658

帖子

4524

积分

4K家园VIP

Rank: 9Rank: 9Rank: 9

积分
4524
发表于 6 天前 | 显示全部楼层
看帖要回,回帖才健康,在踩踩,楼主辛苦了!
回复 支持 反对

使用道具 举报

39

主题

1485

帖子

4249

积分

4K家园VIP

Rank: 9Rank: 9Rank: 9

积分
4249
发表于 5 天前 来自手机 | 显示全部楼层
占位编辑
回复 支持 反对

使用道具 举报

2

主题

1313

帖子

3959

积分

4K家园VIP

Rank: 9Rank: 9Rank: 9

积分
3959
发表于 5 天前 来自手机 | 显示全部楼层
感谢楼主的分享,还是阔以滴
回复 支持 反对

使用道具 举报

您需要登录后才可以回帖 登录 | 立即注册

本版积分规则

精彩图文
Archiver|手机版|TAG|Sitemap|新帖|专题|联系我们:邮箱: 4kjia.com@gmail.com   

4k家园   ©2019