[国家地理] [4K国家地理] 逐渐消失的冰川 (2021) [2160P/MKV/980MB]

[复制链接]

2664

主题

2998

帖子

2万

积分

超级版主

Rank: 8Rank: 8

积分
25020
 楼主| 发表于 2022-1-4 13:35:14 | 显示全部楼层 |阅读模式
本帖最后由 叽里呱啦 于 2022-1-4 13:35 编辑

冰之消亡(980MB) Umiranie.lda_The.Dying.of.The.Ice.2020.WEBRip.2160.mkv_2022010.jpg 冰之消亡(980MB) Umiranie.lda_The.Dying.of.The.Ice.2020.WEBRip.2160.mkv_2022010.jpg 冰之消亡(980MB) Umiranie.lda_The.Dying.of.The.Ice.2020.WEBRip.2160.mkv_2022010.jpg 冰之消亡(980MB) Umiranie.lda_The.Dying.of.The.Ice.2020.WEBRip.2160.mkv_2022010.jpg 冰之消亡(980MB) Umiranie.lda_The.Dying.of.The.Ice.2020.WEBRip.2160.mkv_2022010.jpg 冰之消亡(980MB) Umiranie.lda_The.Dying.of.The.Ice.2020.WEBRip.2160.mkv_2022010.jpg

电影信息
标题:逐渐消失的冰川
消亡 上映时间: 2020
国家:美国
持续时间: 00 : 08 : 56
类型: 具体


影片简介:

       对冰川和气候的视觉冥想。
General
Complete name                  : J:\冰之消亡(980MB) Umiranie.lda_The.Dying.of.The.Ice.2020.WEBRip.2160.mkv
Format                         : Matroska
Format version                 : Version 4
File size                      : 980 MiB
Duration                       : 8 min 56 s
Overall bit rate               : 15.3 Mb/s
Encoded date                   : UTC 2021-12-28 19:30:52
Writing application            : mkvmerge v63.0.0 ('Everything') 64-bit
Writing library                : libebml v1.4.2 + libmatroska v1.6.4

Video
ID                             : 1
Format                         : AVC
Format/Info                    : Advanced Video Codec
Format profile                 : High@L5.2
Format settings                : CABAC / 5 Ref Frames
Format settings, CABAC         : Yes
Format settings, Reference fra : 5 frames
Codec ID                       : V_MPEG4/ISO/AVC
Duration                       : 8 min 56 s
Bit rate                       : 15.1 Mb/s
Width                          : 3 840 pixels
Height                         : 2 160 pixels
Display aspect ratio           : 16:9
Frame rate mode                : Constant
Frame rate                     : 30.000 FPS
Color space                    : YUV
Chroma subsampling             : 4:2:0
Bit depth                      : 8 bits
Scan type                      : Progressive
Bits/(Pixel*Frame)             : 0.061
Stream size                    : 964 MiB (98%)
Writing library                : x264 core 160 r10 33f9e14
Encoding settings              : cabac=1 / ref=5 / deblock=1:0:0 / analyse=0x3:0x113 / me=hex / subme=8 / psy=1 / psy_rd=1.00:0.00 / mixed_ref=1 / me_range=16 / chroma_me=1 / trellis=2 / 8x8dct=1 / cqm=0 / deadzone=21,11 / fast_pskip=1 / chroma_qp_offset=-2 / threads=48 / lookahead_threads=8 / sliced_threads=0 / nr=0 / decimate=1 / interlaced=0 / bluray_compat=0 / stitchable=1 / constrained_intra=0 / bframes=3 / b_pyramid=2 / b_adapt=2 / b_bias=0 / direct=3 / weightb=1 / open_gop=0 / weightp=2 / keyint=infinite / keyint_min=30 / scenecut=40 / intra_refresh=0 / rc_lookahead=50 / rc=crf / mbtree=1 / crf=20.0 / qcomp=0.60 / qpmin=5 / qpmax=69 / qpstep=4 / vbv_maxrate=24200 / vbv_bufsize=66000 / crf_max=0.0 / nal_hrd=none / filler=0 / ip_ratio=1.40 / aq=1:1.00
Default                        : Yes
Forced                         : No
Color range                    : Limited
Color primaries                : BT.709
Transfer characteristics       : BT.709
Matrix coefficients            : BT.709

Audio
ID                             : 2
Format                         : AAC LC
Format/Info                    : Advanced Audio Codec Low Complexity
Codec ID                       : A_AAC-2
Duration                       : 8 min 56 s
Bit rate                       : 253 kb/s
Channel(s)                     : 2 channels
Channel layout                 : L R
Sampling rate                  : 48.0 kHz
Frame rate                     : 46.875 FPS (1024 SPF)
Compression mode               : Lossy
Delay relative to video        : -66 ms
Stream size                    : 16.2 MiB (2%)
Default                        : Yes
Forced                         : No

下载地址:

****此区域为收费内容****    需支付 15 金币后可查看立即购买




.

上一篇:[4K国家地理] 春暖中的速尔群岛 (2021) [2160P/MKV/475MB]
下一篇:[4K国家地理] 奥卡拉国家森林 (2021) [2160P/MKV/522MB]
回复

使用道具 举报

52

主题

1455

帖子

4231

积分

4K家园VIP

Rank: 9Rank: 9Rank: 9

积分
4231
发表于 2022-1-4 13:35:25 来自手机 | 显示全部楼层
差评
回复 支持 反对

使用道具 举报

0

主题

7280

帖子

1万

积分

4K家园VIP

Rank: 9Rank: 9Rank: 9

积分
16651
发表于 2022-1-4 14:24:42 | 显示全部楼层
逐渐消失的冰川4k
回复 支持 反对

使用道具 举报

0

主题

1300

帖子

3926

积分

4K家园VIP

Rank: 9Rank: 9Rank: 9

积分
3926
发表于 2022-1-4 19:04:28 | 显示全部楼层
分享的不错,希望楼主继续分享
回复 支持 反对

使用道具 举报

1

主题

1349

帖子

3901

积分

4K家园VIP

Rank: 9Rank: 9Rank: 9

积分
3901
发表于 2022-1-5 20:35:48 | 显示全部楼层
分享的不错,希望楼主继续分享
回复 支持 反对

使用道具 举报

51

主题

1536

帖子

4420

积分

4K家园VIP

Rank: 9Rank: 9Rank: 9

积分
4420
发表于 2022-1-6 01:53:31 | 显示全部楼层
前排顶起
回复 支持 反对

使用道具 举报

0

主题

1677

帖子

4543

积分

4K家园VIP

Rank: 9Rank: 9Rank: 9

积分
4543
发表于 2022-1-6 08:17:29 | 显示全部楼层
支持下楼主,顶一个
回复 支持 反对

使用道具 举报

0

主题

1433

帖子

4514

积分

中级会员

Rank: 4

积分
4514
发表于 2022-1-6 10:35:08 | 显示全部楼层
谢谢楼主分享
回复 支持 反对

使用道具 举报

您需要登录后才可以回帖 登录 | 立即注册

本版积分规则

精彩图文
Archiver|手机版|TAG|Sitemap|新帖|专题|联系我们:邮箱: 4kjia.com@gmail.com   

4k家园   ©2019