鳕鱼角 / Hightown (2020-2021) / 第一、二季全/4K高清版本下载

[复制链接]

66

主题

79

帖子

763

积分

版主

Rank: 7Rank: 7Rank: 7

积分
763
 楼主| 发表于 2022-1-4 15:51:51 | 显示全部楼层 |阅读模式
p2594580049_副本_副本.jpg p2687227040_副本460.jpg

◎译  名 鳕鱼角/普罗威斯顿/嗨镇/P-Town
◎片  名 Hightown  Season 1-2
◎年  代 2020-2020
◎产  地 美国
◎类  别 剧情/犯罪
◎语  言 英语
◎上映日期 2020-05-17(美国)
◎IMDb评分  6.7/10 from 4273 users
◎IMDb链接  https://www.imdb.com/title/tt9340550/
◎豆瓣评分 0/10 from 0 users
◎豆瓣链接 https://douban.com/subject/27594198/
◎导  演 瑞秋·莫里森 Rachel Morrison
◎主  演 莫妮卡·雷蒙德 Monica Raymund
       肖恩·哈珀 Shane Harper
       詹姆斯·戴尔 James Badge Dale
       莱利·沃克 Riley Voelkel
       阿特金斯·埃斯特蒙德 Atkins Estimond
       迈克·普涅夫斯基 Mike Pniewski
       艾德蒙·多诺文 Edmund Donovan
       托尼娅·格兰茨 Tonya Glanz
       杰夫·阿德勒 Jeff Adler
       艾曼尼·刘易斯 Imani Lewis
       弗朗西斯·觉 Francis Jue
       德鲁·鲍威尔 Drew Powell
       亨尼·罗素 Henny Russell
       Erik McKay
       萨曼莎·布克 Samantha Buck
       陈大卫 David Chen
       阿莫里·诺拉斯科 Amaury Nolasco
       当·诺伍德 Dohn Norwood


◎简  介


  背景设置在美国麻萨诸塞州鳕鱼角,女主角Jackie Quinones(Monica Raymund饰)是名美国国家海洋渔业局官员,她在当地沙滩上发现了一具尸体,后来尸体被证实是因鸦片类药物而受害,Jackie因而开始着迷于解决此谋杀案。

General
Complete name                  : J:\4K@美剧\Hightown.S02E01.2160p.STAN.WEB-DL.DDP5.1.HEVC-NTb.mkv
Format                         : Matroska
Format version                 : Version 4
File size                      : 5.55 GiB
Duration                       : 55 min 33 s
Overall bit rate               : 14.3 Mb/s
Encoded date                   : UTC 2021-10-17 15:24:41
Writing application            : mkvmerge v58.0.0 ('Supper's Ready') 64-bit
Writing library                : libebml v1.4.2 + libmatroska v1.6.4
IsTruncated                    : Yes

Video
ID                             : 1
Format                         : HEVC
Format/Info                    : High Efficiency Video Coding
Format profile                 : Main@L5@High
Codec ID                       : V_MPEGH/ISO/HEVC
Duration                       : 55 min 33 s
Bit rate                       : 13.4 Mb/s
Width                          : 3 840 pixels
Height                         : 2 160 pixels
Display aspect ratio           : 16:9
Frame rate mode                : Constant
Frame rate                     : 23.976 (24000/1001) FPS
Color space                    : YUV
Chroma subsampling             : 4:2:0
Bit depth                      : 8 bits
Bits/(Pixel*Frame)             : 0.067
Stream size                    : 5.19 GiB (94%)
Default                        : Yes
Forced                         : No
Color range                    : Limited
Color primaries                : BT.709
Transfer characteristics       : BT.709
Matrix coefficients            : BT.709

Audio
ID                             : 2
Format                         : E-AC-3
Format/Info                    : Enhanced AC-3
Commercial name                : Dolby Digital Plus
Codec ID                       : A_EAC3
Duration                       : 55 min 33 s
Bit rate mode                  : Constant
Bit rate                       : 640 kb/s
Channel(s)                     : 6 channels
Channel layout                 : L R C LFE Ls Rs
Sampling rate                  : 48.0 kHz
Frame rate                     : 31.250 FPS (1536 SPF)
Compression mode               : Lossy
Stream size                    : 254 MiB (4%)
Language                       : English
Service kind                   : Complete Main
Default                        : Yes
Forced                         : No

Text #1
ID                             : 3
Format                         : UTF-8
Codec ID                       : S_TEXT/UTF8
Codec ID/Info                  : UTF-8 Plain Text
Language                       : English
Default                        : No
Forced                         : No

Text #2
ID                             : 4
Format                         : UTF-8
Codec ID                       : S_TEXT/UTF8
Codec ID/Info                  : UTF-8 Plain Text
Title                          : SDH
Language                       : English
Default                        : No
Forced                         : No

Menu
00:00:00.000                   : Recap & Intro start
00:03:07.000                   : Recap & Intro end / Intro end
00:01:36.000                   : Intro start
00:54:08.000                   : Credits
下载地址:

第一季全集
游客,如果您要查看本帖隐藏内容请回复

第二季全集
游客,如果您要查看本帖隐藏内容请回复




.

上一篇:游客 / The Tourist (2022) / 第一季全6集/4K高清版本下载
下一篇:时光之轮 (内嵌简繁中字)(2021) / 第一季全8集/4K高清版本下载
回复

使用道具 举报

0

主题

1346

帖子

3836

积分

中级会员

Rank: 4

积分
3836
发表于 2022-1-4 15:52:25 | 显示全部楼层
看起来好像不错的样子
回复 支持 反对

使用道具 举报

0

主题

7236

帖子

1万

积分

4K家园VIP

Rank: 9Rank: 9Rank: 9

积分
16568
发表于 2022-1-4 17:17:44 | 显示全部楼层
太好啦&萬分感謝版主的無私發佈分享%
回复 支持 反对

使用道具 举报

0

主题

1612

帖子

4466

积分

4K家园VIP

Rank: 9Rank: 9Rank: 9

积分
4466
发表于 2022-1-5 01:25:29 | 显示全部楼层
路过
回复 支持 反对

使用道具 举报

5

主题

1445

帖子

4167

积分

4K家园VIP

Rank: 9Rank: 9Rank: 9

积分
4167
发表于 2022-1-5 11:44:18 | 显示全部楼层
一直在看
回复 支持 反对

使用道具 举报

50

主题

1456

帖子

4140

积分

4K家园VIP

Rank: 9Rank: 9Rank: 9

积分
4140
发表于 2022-1-5 17:22:48 来自手机 | 显示全部楼层
不错 支持一个了
回复 支持 反对

使用道具 举报

1

主题

1308

帖子

3944

积分

4K家园VIP

Rank: 9Rank: 9Rank: 9

积分
3944
发表于 2022-1-5 17:57:46 来自手机 | 显示全部楼层
路过
回复 支持 反对

使用道具 举报

您需要登录后才可以回帖 登录 | 立即注册

本版积分规则

精彩图文
Archiver|手机版|TAG|Sitemap|新帖|专题|联系我们:邮箱: 4kjia.com@gmail.com   

4k家园   ©2019