[4K电影] 铁道英雄 (国语中字) / Railway Heroes (2021) 4K高清版本下载

[复制链接]

1339

主题

1444

帖子

1万

积分

超级版主

Rank: 8Rank: 8

积分
11232
 楼主| 发表于 2022-1-5 19:26:15 | 显示全部楼层 |阅读模式
本帖最后由 最爱4K哟 于 2022-1-18 11:07 编辑

QQ图片20220118110336_副本.png

◎译  名 铁道队/铁道游击队1939/Railway Heroes
◎片  名 铁道英雄
◎年  代 2021
◎产  地 中国大陆
◎类  别 剧情/动作/历史/战争
◎语  言 汉语普通话
◎上映日期 2021-11-19(中国大陆)
◎IMDb评分  6.5/10 from 55 users
◎IMDb链接  https://www.imdb.com/title/tt13859694/
◎豆瓣评分 6.3/10 from 23005 users
◎豆瓣链接 https://douban.com/subject/35205446/
◎片  长 123分钟
◎导  演 杨枫 Feng Yang
◎编  剧 杨枫 Feng Yang
◎主  演 张涵予 Hanyu Zhang
       范伟 Wei Fan
       魏晨 Vision Wei
       周也 Ye Zhou
       俞灏明 Haoming Yu
       森博之 Hiroyuki Mori
       谭凯 Kai Tan
       杨皓宇 Haoyu Yang
       小么哥 Xiaomege
       张帆 Fan Zhang
       周政杰 Zhengjie Zhou
       姜寒 Han Jiang
       郭洺宇 Mingyu Guo
       刘显达 Xianda Liu


◎简  介


  抗日战争时期,在日军肆虐横行的鲁南地区,临城枣庄英勇的“铁道队”穿铁轨、扒火车,截取武器和物资,用胆识和智慧与敌人斗争到底,殊死捍卫家园,为抗战胜利作出突出贡献。
  本片是根据发生在1935年-1945年间,洪振海、王志胜、杜季伟、刘金山等“铁道队”队员的真实事迹改编,将最大限度地还原“铁道队”的英雄故事。

General
Complete name                  : H:\4K@电影铁道英雄.Railway.Heroes.2021.2160p.WEB-DL.H265.DDP5.1-btbtt.mkv
Format                         : Matroska
Format version                 : Version 4
File size                      : 3.54 GiB
Duration                       : 2 h 3 min
Overall bit rate               : 4 099 kb/s
Encoded date                   : UTC 2022-01-05 07:36:13
Writing application            : mkvmerge v58.0.0 ('Supper's Ready') 64-bit
Writing library                : libebml v1.4.2 + libmatroska v1.6.4

Video
ID                             : 1
Format                         : HEVC
Format/Info                    : High Efficiency Video Coding
Format profile                 : Main@L5@Main
Codec ID                       : V_MPEGH/ISO/HEVC
Duration                       : 2 h 3 min
Bit rate                       : 3 842 kb/s
Width                          : 3 840 pixels
Height                         : 1 608 pixels
Display aspect ratio           : 2.40:1
Frame rate mode                : Constant
Frame rate                     : 24.000 FPS
Color space                    : YUV
Chroma subsampling             : 4:2:0
Bit depth                      : 8 bits
Bits/(Pixel*Frame)             : 0.026
Stream size                    : 3.32 GiB (94%)
Language                       : Chinese
Default                        : Yes
Forced                         : No

Audio
ID                             : 2
Format                         : E-AC-3
Format/Info                    : Enhanced AC-3
Commercial name                : Dolby Digital Plus
Codec ID                       : A_EAC3
Duration                       : 2 h 3 min
Bit rate mode                  : Constant
Bit rate                       : 256 kb/s
Channel(s)                     : 6 channels
Channel layout                 : L R C LFE Ls Rs
Sampling rate                  : 48.0 kHz
Frame rate                     : 31.250 FPS (1536 SPF)
Compression mode               : Lossy
Stream size                    : 226 MiB (6%)
Language                       : Chinese
Service kind                   : Complete Main
Default                        : Yes
Forced                         : No

迅雷下载资源速度为零或资源敏感被和谐时,推荐使用qBittorrent等下载软件,有条件的推荐115更好的下载软件!

阿里云盘 (版权问题,随时删除,谢谢!):

****此区域为收费内容****    需支付 9 金币后可查看立即购买






.

上一篇:超能敢死队 / Ghostbusters: Afterlife (2021) 4K高清版本下载
下一篇:温柔酒吧(内封简繁中字)/The Tender Bar (2021)4K高清版本下载
回复

使用道具 举报

1339

主题

1444

帖子

1万

积分

超级版主

Rank: 8Rank: 8

积分
11232
 楼主| 发表于 2022-1-5 19:32:38 | 显示全部楼层
铁道英雄.Railway.Heroes.2021.2160p.WEB-DL.H265.DDP5.1-btbtt.mkv_20220105_192719..jpg 铁道英雄.Railway.Heroes.2021.2160p.WEB-DL.H265.DDP5.1-btbtt.mkv_20220105_192739..jpg 铁道英雄.Railway.Heroes.2021.2160p.WEB-DL.H265.DDP5.1-btbtt.mkv_20220105_192809..jpg 铁道英雄.Railway.Heroes.2021.2160p.WEB-DL.H265.DDP5.1-btbtt.mkv_20220105_192832..jpg 铁道英雄.Railway.Heroes.2021.2160p.WEB-DL.H265.DDP5.1-btbtt.mkv_20220105_192913..jpg 铁道英雄.Railway.Heroes.2021.2160p.WEB-DL.H265.DDP5.1-btbtt.mkv_20220105_192930..jpg
回复 支持 反对

使用道具 举报

0

主题

1294

帖子

3900

积分

4K家园VIP

Rank: 9Rank: 9Rank: 9

积分
3900
发表于 2022-1-5 19:26:33 来自手机 | 显示全部楼层
打酱油的人拉,回复下赚取积分
回复 支持 反对

使用道具 举报

0

主题

7280

帖子

1万

积分

4K家园VIP

Rank: 9Rank: 9Rank: 9

积分
16651
发表于 2022-1-5 19:31:31 | 显示全部楼层
太好啦&萬分感謝版主的無私發佈分享%
回复 支持 反对

使用道具 举报

0

主题

52

帖子

189

积分

新手上路

Rank: 1

积分
189
发表于 2022-1-5 19:43:37 | 显示全部楼层
这么快都出来了,感谢楼主分享
回复 支持 反对

使用道具 举报

0

主题

27

帖子

2336

积分

注册会员

Rank: 2

积分
2336
发表于 2022-1-5 20:25:32 | 显示全部楼层
这么快就有了
回复 支持 反对

使用道具 举报

0

主题

4

帖子

234

积分

新手上路

Rank: 1

积分
234
发表于 2022-1-6 00:05:27 | 显示全部楼层
谢谢分享
回复

使用道具 举报

0

主题

7

帖子

45

积分

4K家园VIP

Rank: 9Rank: 9Rank: 9

积分
45
发表于 2022-1-6 07:37:38 | 显示全部楼层
感谢分享
回复

使用道具 举报

1

主题

17

帖子

1147

积分

4K家园VIP

Rank: 9Rank: 9Rank: 9

积分
1147
发表于 2022-1-6 08:25:33 | 显示全部楼层
谢谢分享 感谢
回复 支持 反对

使用道具 举报

0

主题

240

帖子

1473

积分

注册会员

Rank: 2

积分
1473
发表于 2022-1-6 13:08:20 | 显示全部楼层
感谢楼主分享
回复 支持 反对

使用道具 举报

您需要登录后才可以回帖 登录 | 立即注册

本版积分规则

精彩图文
Archiver|手机版|TAG|Sitemap|新帖|专题|联系我们:邮箱: 4kjia.com@gmail.com   

4k家园   ©2019